找回密码

4K中国论坛

下载当贝市场
查看: 425797|回复: 40716

[4K电影] 三星专用:4K家庭影院的震撼感受 大气蓬勃(变形金刚4+3预告片)H265/1.3G/百度

  [复制链接]
发表于 2014-5-30 00:38:54 | 显示全部楼层 |阅读模式
20140529-211302.JPG
20140529-173516.JPG
20140529-211145.JPG
20140529-173548.JPG
20140529-173635.JPG
20140529-174047.JPG

[三星专用]大气蓬勃 感受4K家庭影院的震撼(变形金刚4+3预告片)H265/1.3G/百度


General
ID                             : 0 (0x0)
Complete name                  : E:\4K中国\UHD_ENT_Transformer_Quad.ts
Format                         : MPEG-TS
File size                      : 1.38 GiB
Duration                       : 3mn 51s
Overall bit rate mode          : Constant
Overall bit rate               : 51.4 Mbps

Video
ID                             : 257 (0x101)
Menu ID                        : 1 (0x1)
Format                         : HEVC
Format/Info                    : High Efficiency Video Coding
Codec ID                       : 36
Duration                       : 3mn 50s
Bit rate                       : 48.7 Mbps
Stream size                    : 1.31 GiB (94%)

Audio
ID                             : 258 (0x102)
Menu ID                        : 1 (0x1)
Format                         : AAC
Format/Info                    : Advanced Audio Codec
Format version                 : Version 4
Format profile                 : LC
Muxing mode                    : ADTS
Codec ID                       : 15
Duration                       : 3mn 50s
Bit rate mode                  : Constant
Bit rate                       : 126 Kbps
Channel(s)                     : 2 channels
Channel positions              : Front: L R
Sampling rate                  : 48.0 KHz
Compression mode               : Lossy
Stream size                    : 3.45 MiB (0%)

这个应该是 变形金刚4+3+2+1混搭的4K演示片.

清晰度不错,无论是细节还是整体画面感,都很能代表4K电影的顶级水准。

游客,如果您要查看本帖隐藏内容请回复
回复

使用道具 举报

发表于 2014-5-30 00:41:46 | 显示全部楼层
没想到我遇到个沙发了

点评

用爱奇艺万能播放器,可以出图像,  发表于 2015-12-17 09:18
需要安装MilkPlayer播放器才能播放,必须CPU高的才可流畅,或者三星S6手机 安装播放器也可以流畅  发表于 2015-6-23 17:54
多次下次测试,多台酷睿I7电脑测试,多种播放器测试,结果只有声音,没有图像,大家别下。  发表于 2015-6-23 17:45
回复 支持 12 反对 2

使用道具 举报

发表于 2014-5-30 00:42:11 | 显示全部楼层
第一个 感谢分享  !4K电影的顶级水准
回复 支持 2 反对 3

使用道具 举报

发表于 2014-5-30 00:42:41 | 显示全部楼层
都很能代表4K电影的顶级水准!!看画面的确给力
回复 支持 3 反对 0

使用道具 举报

发表于 2014-5-30 00:43:56 | 显示全部楼层
看看呢,是不是哟
回复 支持 反对

使用道具 举报

发表于 2014-5-30 00:54:42 | 显示全部楼层
谢谢分享,下来看看
回复 支持 反对

使用道具 举报

发表于 2014-5-30 01:07:36 | 显示全部楼层
非常感谢分享!!!!!
回复 支持 反对

使用道具 举报

发表于 2014-5-30 01:22:00 | 显示全部楼层
变形金刚
回复

使用道具 举报

发表于 2014-5-30 01:37:08 | 显示全部楼层
嘿嘿嘿嘿嘿嘿嘿嘿嘿嘿嘿
回复 支持 0 反对 1

使用道具 举报

发表于 2014-5-30 02:03:33 | 显示全部楼层
谢谢分享。

点评

只有声音没有图像!  发表于 2014-7-6 23:19
回复

使用道具 举报

您需要登录后才可以回帖 登录 | 注册

本版积分规则

手机版|4K知识百科|小黑屋|标签|Sitemap|联系我们|Archiver| 4K中国论坛  

Copyright © 2013-2017 Comsenz Inc.   All Rights Reserved.

Powered by Discuz! X3.1

快速回复 返回顶部 返回列表