找回密码

4K中国论坛

高清电影大片
查看: 9074|回复: 350

[4K电影] [4K真人秀]大世界之旅 第一季•第九集 2017(高码率)[2160P/MKV/19.4GB]

[复制链接]
发表于 2017-1-7 22:26:03 | 显示全部楼层 |阅读模式
本帖最后由 klpoij89 于 2017-1-14 19:12 编辑

[4K真人秀]大世界之旅 第一季第九集 2017(高码率)[2160P/MKV/19.4GB]
[4K真人秀]大世界之旅 第一季•第九集 2017(高码率)[2160P/MKV/19.4GB]
译  名:大世界之旅

片  名:The Grand Tour

年  代:2017

国  家:英国

类  别:真人秀 / 喜剧

语  言:英语

字       幕:英文

音       频:AC-3 5.1

视频尺寸:3840 x 2160

文件大小:19.4 GiB

IMDb评分:8.6/10 from 213 users

IMDb链接:http://www.imdb.com/title/tt6068846/?ref_=tt_ep_nx

片  长:62 分钟

导  演:Phil Churchward 菲尔·查沃德

                 Kit Lynch Robinson 凯特·林奇·罗宾森

主  演:Jeremy Clarkson 杰里米·克拉克森

                 Richard Hammond 理查德·哈蒙德

                 James May 詹姆斯·梅

                 Mike Skinner 麦克·斯金纳

简介:


The Grand Tour travelling tent arrives Stuttgart, Germany, the home of Porsche and Mercedes-Benz. In this show, James May takes the new Honda NSX supercar to the Eboladrome to push its cutting-edge hybrid technology to the limit and Richard Hammond immerses himself in the world of doomsday preppers as he constructs a 'bugout' vehicle that will allow him to survive a bleak future of nuclear winters, alien invasions and massed herds of zombies. Meanwhile, in a less realistic attempt at engineering, Jeremy Clarkson invents a new kind of fashionable SUV. Also in this show, the hosts attempt to meet the future demands of electric cars by harnessing power from the currently untapped actions of everyday life.

General
Unique ID : 243249713882441002443875721719227205454 (0xB70030D7CF1244A49FB3B639DCEDC74E)
Complete name : The.Grand.Tour.S01E09.2160p.AMZN.WEBRip.DD5.1.x264-TrollUHD.mkv
Format : Matroska
Format version : Version 4 / Version 2
File size : 19.4 GiB
Duration : 1 h 2 min
Overall bit rate : 44.6 Mbps
Encoded date : UTC 2017-01-06 10:43:33
Writing application : mkvmerge v8.3.0 ('Over the Horizon') 64bit
Writing library : libebml v1.3.1 + libmatroska v1.4.2

Video
ID : 1
Format : AVC
Format/Info : Advanced Video Codec
Format profile : High@L5.1
Format settings, CABAC : Yes
Format settings, ReFrames : 5 frames
Codec ID : V_MPEG4/ISO/AVC
Duration : 1 h 2 min
Bit rate : 44.0 Mbps
Width : 3840 pixels
Height : 2160 pixels
Display aspect ratio : 16:9
Frame rate mode : Constant
Frame rate : 23.976 (24000/1001) FPS
Color space : YUV
Chroma subsampling : 4:2:0
Bit depth : 8 bits
Scan type : Progressive
Bits/(Pixel*Frame) : 0.221
Stream size : 19.1 GiB (99%)
Writing library : x264 core 148 r2638 7599210
Encoding settings : cabac=1 / ref=5 / deblock=1:-3:-3 / analyse=0x3:0x133 / me=umh / subme=10 / psy=1 / psy_rd=1.00:0.00 / mixed_ref=1 / me_range=48 / chroma_me=1 / trellis=2 / 8x8dct=1 / cqm=0 / deadzone=21,11 / fast_pskip=1 / chroma_qp_offset=-2 / threads=48 / lookahead_threads=8 / sliced_threads=0 / nr=0 / decimate=0 / interlaced=0 / bluray_compat=0 / constrained_intra=0 / bframes=8 / b_pyramid=2 / b_adapt=2 / b_bias=0 / direct=3 / weightb=1 / open_gop=0 / weightp=2 / keyint=240 / keyint_min=23 / scenecut=40 / intra_refresh=0 / rc_lookahead=60 / rc=crf / mbtree=1 / crf=17.0 / qcomp=0.70 / qpmin=0 / qpmax=69 / qpstep=4 / vbv_maxrate=300000 / vbv_bufsize=300000 / crf_max=0.0 / nal_hrd=none / filler=0 / ip_ratio=1.40 / aq=1:0.70
Default : Yes
Forced : No

Audio
ID : 2
Format : E-AC-3
Format/Info : Enhanced Audio Coding 3
Format settings, Endianness : Big
Codec ID : A_EAC3
Duration : 1 h 2 min
Bit rate mode : Constant
Bit rate : 640 kbps
Channel(s) : 6 channels
Channel positions : Front: L C R, Side: L R, LFE
Sampling rate : 48.0 kHz
Frame rate : 187.500 FPS (256 spf)
Compression mode : Lossy
Stream size : 285 MiB (1%)
Language : English
Default : Yes
Forced : No

Text
ID : 3
Format : UTF-8
Codec ID : S_TEXT/UTF8
Codec ID/Info : UTF-8 Plain Text
Duration : 1 h 0 min
Bit rate : 86 bps
Count of elements : 1169
Stream size : 38.5 KiB (0%)
Default : Yes
Forced : No
[4K真人秀]大世界之旅 第一季•第九集 2017(高码率)[2160P/MKV/19.4GB] [4K真人秀]大世界之旅 第一季•第九集 2017(高码率)[2160P/MKV/19.4GB] [4K真人秀]大世界之旅 第一季•第九集 2017(高码率)[2160P/MKV/19.4GB] [4K真人秀]大世界之旅 第一季•第九集 2017(高码率)[2160P/MKV/19.4GB] [4K真人秀]大世界之旅 第一季•第九集 2017(高码率)[2160P/MKV/19.4GB] [4K真人秀]大世界之旅 第一季•第九集 2017(高码率)[2160P/MKV/19.4GB] [4K真人秀]大世界之旅 第一季•第九集 2017(高码率)[2160P/MKV/19.4GB] [4K真人秀]大世界之旅 第一季•第九集 2017(高码率)[2160P/MKV/19.4GB] [4K真人秀]大世界之旅 第一季•第九集 2017(高码率)[2160P/MKV/19.4GB] [4K真人秀]大世界之旅 第一季•第九集 2017(高码率)[2160P/MKV/19.4GB] [4K真人秀]大世界之旅 第一季•第九集 2017(高码率)[2160P/MKV/19.4GB] [4K真人秀]大世界之旅 第一季•第九集 2017(高码率)[2160P/MKV/19.4GB] [4K真人秀]大世界之旅 第一季•第九集 2017(高码率)[2160P/MKV/19.4GB] [4K真人秀]大世界之旅 第一季•第九集 2017(高码率)[2160P/MKV/19.4GB] [4K真人秀]大世界之旅 第一季•第九集 2017(高码率)[2160P/MKV/19.4GB] [4K真人秀]大世界之旅 第一季•第九集 2017(高码率)[2160P/MKV/19.4GB]
建议使用极速迅雷来高速下载!
播放器: Potplaye/MPC-HC


BT种子文件下载

游客,如果您要查看本帖隐藏内容请回复




回复

使用道具 举报

发表于 2017-1-7 22:41:00 | 显示全部楼层
非常感谢
回复

使用道具 举报

发表于 2017-1-7 23:53:59 | 显示全部楼层
支持楼主,4K123有你更精彩!
回复 支持 反对

使用道具 举报

发表于 2017-1-8 00:00:02 | 显示全部楼层
感谢楼主的辛勤劳动。
回复 支持 反对

使用道具 举报

发表于 2017-1-8 00:50:54 | 显示全部楼层
真是难得给力的资源啊。
回复 支持 反对

使用道具 举报

发表于 2017-1-8 01:27:47 | 显示全部楼层
非常感谢
回复

使用道具 举报

发表于 2017-1-8 01:45:13 | 显示全部楼层
一晃已经是i第九集了,谢谢分享。
回复 支持 反对

使用道具 举报

发表于 2017-1-8 03:29:16 | 显示全部楼层
新手前来学习4K
回复 支持 反对

使用道具 举报

发表于 2017-1-8 03:40:55 | 显示全部楼层
新手前来学习4K
回复 支持 反对

使用道具 举报

发表于 2017-1-8 04:13:06 | 显示全部楼层
支持楼主,4K123有你更精彩!
回复 支持 反对

使用道具 举报

您需要登录后才可以回帖 登录 | 注册

本版积分规则

手机版|4K知识百科|小黑屋|标签|Sitemap|联系我们|Archiver| 4K中国论坛  

Copyright © 2013-2017 Comsenz Inc.   All Rights Reserved.

Powered by Discuz! X3.1

快速回复 返回顶部 返回列表