找回密码

4K中国论坛

高清电影大片
查看: 8685|回复: 1041
打印 上一主题 下一主题

[4K] [韩国UMAX.UHD] 克拉拉的美丽色彩瑜伽 2 (HEVC 60fps 10bit)[2160P/TS/2.87GB]

[复制链接]
跳转到指定楼层
1楼(楼主)
发表于 2017-1-9 06:36:11 | 只看该作者 回帖奖励 |倒序浏览 |阅读模式
[韩国UMAX.UHD] 克拉拉的美丽色彩瑜伽 2 (HEVC 60fps 10bit)[2160P/TS/2.87GB]
General
ID : 1 (0x1)
Complete name : 클라라의 뷰티풀 컬러요가 E2 2160p UHDTV HEVC-BtttS.ts
Format : MPEG-TS
File size : 2.87 GiB
Duration : 12 min 17 s
Overall bit rate mode : Variable
Overall bit rate : 33.4 Mbps

Video
ID : 256 (0x100)
Menu ID : 1 (0x1)
Format : HEVC
Format/Info : High Efficiency Video Coding
Format profile : Main 10@L5.1@Main
Codec ID : 36
Duration : 12 min 18 s
Bit rate : 31.3 Mbps
Width : 3840 pixels
Height : 2160 pixels
Display aspect ratio : 16:9
Frame rate : 60.000 FPS
Color space : YUV
Chroma subsampling : 4:2:0
Bit depth : 10 bits
Bits/(Pixel*Frame) : 0.063
Stream size : 2.70 GiB (94%)
Writing library : ATEME Titan KFE 3.6.2 (4.6.1.9)

Audio
ID : 257 (0x101)
Menu ID : 1 (0x1)
Format : AC-3
Format/Info : Audio Coding 3
Mode extension : CM (complete main)
Format settings, Endianness : Big
Codec ID : 129
Duration : 12 min 19 s
Bit rate mode : Constant
Bit rate : 384 kbps
Channel(s) : 2 channels
Channel positions : Front: L R
Sampling rate : 48.0 kHz
Frame rate : 31.250 FPS (1536 spf)
Bit depth : 16 bits
Compression mode : Lossy
Delay relative to video : -655 ms
Stream size : 33.8 MiB (1%)
Language : Korean

Menu
ID : 4096 (0x1000)
Menu ID : 1 (0x1)
Duration : 12 min 17 s
List : 256 (0x100) (HEVC) / 257 (0x101) (AC-3, Korean)
Language : / Korean
Service name : Service01
Service provider : FFmpeg
Service type : digital television

播放器: Potplaye/MPC-HC


百度云盘下载
游客,如果您要查看本帖隐藏内容请回复


收藏收藏9 分享淘帖
回复

使用道具 举报

2楼(沙发)
发表于 2017-1-9 08:03:22 来自4K123手机版 | 只看该作者
美丽人瑜伽(
回复 支持 反对

使用道具 举报

3楼(板凳)
发表于 2017-1-9 08:18:40 | 只看该作者
[韩国UMAX.UHD]克拉拉的美丽色彩瑜伽(HEVC 60fps 10bit)[
回复 支持 反对

使用道具 举报

4楼(地板)
发表于 2017-1-9 08:20:54 | 只看该作者
又是涨姿势了
回复 支持 反对

使用道具 举报

5楼
发表于 2017-1-9 08:36:24 | 只看该作者
楼主辛苦了
回复 支持 反对

使用道具 举报

6楼
发表于 2017-1-9 08:54:11 | 只看该作者
亮点来了,谢谢版主啊
回复 支持 反对

使用道具 举报

7楼
发表于 2017-1-9 09:01:45 | 只看该作者
真是难得给力的资源啊。
回复 支持 反对

使用道具 举报

8楼
发表于 2017-1-9 09:15:31 | 只看该作者
支持楼主,4K123有你更精彩!
回复 支持 反对

使用道具 举报

9楼
发表于 2017-1-9 09:23:05 | 只看该作者
支持楼主,4K123有你更精彩!
回复 支持 反对

使用道具 举报

10楼
发表于 2017-1-9 09:26:41 | 只看该作者
支持楼主,4K123有你更精彩!
回复 支持 反对

使用道具 举报

您需要登录后才可以回帖 登录 | 注册

本版积分规则

手机版|4K知识百科|小黑屋|标签|Sitemap|联系我们|Archiver| 4K中国论坛  

Copyright © 2001-2016 Comsenz Inc.   All Rights Reserved.

Powered by Discuz! X3.1

快速回复 返回顶部 返回列表