找回密码

4K中国论坛

下载当贝市场
查看: 6529|回复: 633
打印 上一主题 下一主题

[4K] [韩国UMAX.UHD]天堂槟城 2015(HEVC 60fps 10bit)[2160P/TS/10.4GB]

[复制链接]
跳转到指定楼层
1楼(楼主)
发表于 2017-3-12 13:26:11 | 只看该作者 回帖奖励 |倒序浏览 |阅读模式
[韩国UMAX.UHD]天堂槟城 2015(HEVC 60fps 10bit)[2160P/TS/10.4GB]
General
ID : 1 (0x1)
Complete name : Paradise.in.Penang.2015.2160p.UHDTV.AAC2.0.HEVC-BtttS.ts
Format : MPEG-TS
File size : 10.4 GiB
Duration : 44 min 38 s
Overall bit rate mode : Variable
Overall bit rate : 33.4 Mbps

Video
ID : 256 (0x100)
Menu ID : 1 (0x1)
Format : HEVC
Format/Info : High Efficiency Video Coding
Format profile : Main 10@L5.1@Main
Codec ID : 36
Duration : 44 min 38 s
Bit rate : 31.3 Mbps
Width : 3840 pixels
Height : 2160 pixels
Display aspect ratio : 16:9
Frame rate : 60.000 FPS
Color space : YUV
Chroma subsampling : 4:2:0
Bit depth : 10 bits
Bits/(Pixel*Frame) : 0.063
Stream size : 9.78 GiB (94%)
Writing library : ATEME Titan KFE 3.6.2 (4.6.1.9)

Audio
ID : 257 (0x101)
Menu ID : 1 (0x1)
Format : AC-3
Format/Info : Audio Coding 3
Format settings, Endianness : Big
Codec ID : 129
Duration : 44 min 38 s
Bit rate mode : Constant
Bit rate : 384 kb/s
Channel(s) : 2 channels
Channel positions : Front: L R
Sampling rate : 48.0 kHz
Frame rate : 31.250 FPS (1536 spf)
Bit depth : 16 bits
Compression mode : Lossy
Delay relative to video : 14 ms
Stream size : 123 MiB (1%)
Language : Korean
Service kind : Complete Main

Menu
ID : 4096 (0x1000)
Menu ID : 1 (0x1)
Duration : 44 min 38 s
List : 256 (0x100) (HEVC) / 257 (0x101) (AC-3, Korean)
Language : / Korean
Service name : Shyguy
Service provider : Born 2 Seed
Service type : digital television

播放器:Potplaye/MPC-HC

百度云盘下载
游客,如果您要查看本帖隐藏内容请回复




收藏收藏6 分享淘帖
回复

使用道具 举报

2楼(沙发)
发表于 2017-3-12 13:35:33 | 只看该作者
[韩国UMAX.UHD]天堂槟城 2015(HEVC 60fps 10bit)[2160P/TS/10.4GB] http://www.4k123.com/forum.php?m ... &fromuid=412224 (出处: 4K中国论坛)

点评

不知道灵不灵  发表于 前天 16:26
回复 支持 1 反对 0

使用道具 举报

3楼(板凳)
发表于 2017-3-12 13:46:50 | 只看该作者
54个洪1飞歌5换1
回复 支持 反对

使用道具 举报

4楼(地板)
发表于 2017-3-12 14:06:16 | 只看该作者
支持楼主,4K123有你更精彩!
回复 支持 反对

使用道具 举报

5楼
发表于 2017-3-12 14:21:22 | 只看该作者
小手一抖,资源拿走。不要想念我小伙们
回复 支持 反对

使用道具 举报

6楼
发表于 2017-3-12 14:35:03 | 只看该作者
新手前来学习4K
回复 支持 反对

使用道具 举报

7楼
发表于 2017-3-12 14:46:16 | 只看该作者
谢谢了!
回复

使用道具 举报

8楼
发表于 2017-3-12 14:48:07 | 只看该作者
看似不错的画质
回复 支持 反对

使用道具 举报

9楼
发表于 2017-3-12 14:50:38 | 只看该作者
支持楼主,4K123有你更精彩!
回复 支持 反对

使用道具 举报

10楼
发表于 2017-3-12 14:53:12 | 只看该作者
支持楼主,4K123有你更精彩!
回复 支持 反对

使用道具 举报

您需要登录后才可以回帖 登录 | 注册

本版积分规则

手机版|4K知识百科|小黑屋|标签|Sitemap|联系我们|Archiver| 4K中国论坛  

Copyright © 2013-2017 Comsenz Inc.   All Rights Reserved.

Powered by Discuz! X3.1

快速回复 返回顶部 返回列表