找回密码
 注册

QQ登录

只需一步,快速开始

[韩国UMAX.UHD] AOA - Miniskirt (HEVC 60fps 10bit)[2160P/TS/716MB]

1314
回复
25305
查看
打印 上一主题 下一主题
[复制链接]
[韩国UMAX.UHD] AOA - Miniskirt (HEVC 60fps 10bit)[2160P/TS/716MB]
[韩国UMAX.UHD] AOA - Miniskirt (HEVC 60fps 10bit)[2160P/TS/716MB] [韩国UMAX.UHD] AOA - Miniskirt (HEVC 60fps 10bit)[2160P/TS/716MB] [韩国UMAX.UHD] AOA - Miniskirt (HEVC 60fps 10bit)[2160P/TS/716MB] [韩国UMAX.UHD] AOA - Miniskirt (HEVC 60fps 10bit)[2160P/TS/716MB] [韩国UMAX.UHD] AOA - Miniskirt (HEVC 60fps 10bit)[2160P/TS/716MB] [韩国UMAX.UHD] AOA - Miniskirt (HEVC 60fps 10bit)[2160P/TS/716MB] [韩国UMAX.UHD] AOA - Miniskirt (HEVC 60fps 10bit)[2160P/TS/716MB] [韩国UMAX.UHD] AOA - Miniskirt (HEVC 60fps 10bit)[2160P/TS/716MB] [韩国UMAX.UHD] AOA - Miniskirt (HEVC 60fps 10bit)[2160P/TS/716MB] [韩国UMAX.UHD] AOA - Miniskirt (HEVC 60fps 10bit)[2160P/TS/716MB] [韩国UMAX.UHD] AOA - Miniskirt (HEVC 60fps 10bit)[2160P/TS/716MB]

General
ID : 1 (0x1)
Complete name : AOA - Miniskirt (140710 UMAX MCD Girls Special) UHD.ts
Format : MPEG-TS
File size : 716 MiB
Duration : 2 min 59 s
Overall bit rate mode : Variable
Overall bit rate : 33.4 Mbps

Video
ID : 256 (0x100)
Menu ID : 1 (0x1)
Format : HEVC
Format/Info : High Efficiency Video Coding
Format profile : Main 10@L5.1@Main
Codec ID : 36
Duration : 3 min 0 s
Bit rate : 31.3 Mbps
Width : 3840 pixels
Height : 2160 pixels
Display aspect ratio : 16:9
Frame rate : 60.000 FPS
Color space : YUV
Chroma subsampling : 4:2:0
Bit depth : 10 bits
Bits/(Pixel*Frame) : 0.063
Stream size : 673 MiB (94%)
Writing library : ATEME Titan KFE 3.5.1 (4.5.1.6)

Audio
ID : 257 (0x101)
Menu ID : 1 (0x1)
Format : AC-3
Format/Info : Audio Coding 3
Format settings, Endianness : Big
Codec ID : 129
Duration : 3 min 0 s
Bit rate mode : Constant
Bit rate : 384 kbps
Channel(s) : 2 channels
Channel positions : Front: L R
Sampling rate : 48.0 kHz
Frame rate : 31.250 FPS (1536 spf)
Bit depth : 16 bits
Compression mode : Lossy
Delay relative to video : -111 ms
Stream size : 8.24 MiB (1%)
Language : Korean
Service kind : Complete Main

Menu
ID : 4096 (0x1000)
Menu ID : 1 (0x1)
Duration : 2 min 59 s
List : 256 (0x100) (HEVC) / 257 (0x101) (AC-3, Korean)
Language :  / Korean
Service name : Service01
Service provider : FFmpeg
Service type : digital television

播放器 : Potplaye/MPC-HC

TS百度云盘
游客,如果您要查看本帖隐藏内容请回复


分享到:  QQ好友和群QQ好友和群
收藏
收藏9
转播
转播
分享
分享
分享
淘帖0
赞
0
踩
0
回复

使用道具 举报

2楼(沙发)#
2017-3-16 07:01:00 只看该作者
支持楼主,4K123有你更精彩!
回复 支持 反对

使用道具 举报

3楼(板凳)#
2017-3-16 07:28:35 只看该作者
感谢分享
回复

使用道具 举报

4楼(地板)#
2017-3-16 08:12:15 只看该作者
支持楼主,4K123有你更精彩!
回复 支持 反对

使用道具 举报

5楼#
2017-3-16 08:24:18 只看该作者
看过1080P的mv,这是要洗版了,谢谢版主分享资源
回复 支持 反对

使用道具 举报

6楼#
2017-3-16 08:31:37 只看该作者
支持楼主,4K123有你更精彩!
回复 支持 反对

使用道具 举报

7楼#
2017-3-16 08:57:20 只看该作者
非常感谢
回复

使用道具 举报

8楼#
2017-3-16 09:00:52 只看该作者
看起来好像不错的样子
回复 支持 反对

使用道具 举报

9楼#
2017-3-16 09:52:16 只看该作者
又是涨姿势了
回复 支持 反对

使用道具 举报

10楼#
2017-3-16 10:02:47 只看该作者
小手一抖,资源拿走,不要想念我小伙们。
回复 支持 反对

使用道具 举报

您需要登录后才可以回帖 登录 | 注册