找回密码

4K中国论坛

高清电影大片
查看: 6665|回复: 563

[4K电影] 4K电影《长城》饕餮大战7分钟精彩片段2160P.H265.10bit[百度/1.8G]

[复制链接]
发表于 2017-7-12 20:22:41 | 显示全部楼层 |阅读模式
4K电影《长城》饕餮大战7分钟精彩片段2160P.H265.10bit[百度/1.8G]
4K电影《长城》饕餮大战7分钟精彩片段2160P.H265.10bit[百度/1.8G]
4K电影《长城》饕餮大战7分钟精彩片段2160P.H265.10bit[百度/1.8G]
4K电影《长城》饕餮大战7分钟精彩片段2160P.H265.10bit[百度/1.8G]
4K电影《长城》饕餮大战7分钟精彩片段2160P.H265.10bit[百度/1.8G]
4K电影《长城》饕餮大战7分钟精彩片段2160P.H265.10bit[百度/1.8G]
4K电影《长城》饕餮大战7分钟精彩片段2160P.H265.10bit[百度/1.8G]
4K电影《长城》饕餮大战7分钟精彩片段2160P.H265.10bit[百度/1.8G]

Complete name         : E:\【4K电影】长城第一战 (中字)The Great Wall.2016[2160P.x265.10bit].mkv
File size                      : 1.87 GiB
Duration                    : 7mn 29s
Overall bit rate mode  : Variable
Overall bit rate          : 35.8 Mbps
Format                      : HEVC
Duration                    : 7mn 28s
Bit rate                       : 29.5 Mbps
Width                         : 3 840 pixels
Height                        : 2 160 pixels
Display aspect ratio   : 16:9
Frame rate                 : 23.976 (24000/1001) fps
Color space                : YUV
Chroma subsampling  : 4:2:0
Bit depth                      : 10 bits
Bits/(Pixel*Frame)        : 0.148
Stream size                  : 1.54 GiB (82%)

Audio
Duration                       : 7mn 28s
Bit rate mode               : Variable
Bit rate                          : 6 371 Kbps
Maximum bit rate         : 7 719 Kbps
Sampling rate                :  / 48.0 KHz
Frame rate                     : 1 200.000 fps (40 spf)
Compression mode       : Lossless
Stream size                    : 341 MiB (18%)

《长城》这部电影好不好看,应该大家也看过了,这是大战饕餮怪物的7分钟精彩4K片段,画质还是很赞的。喜欢的可以体验一下。


百度网盘:
游客,如果您要查看本帖隐藏内容请回复


回复

使用道具 举报

 楼主| 发表于 2017-7-12 20:23:30 | 显示全部楼层
画面还是非常细腻的  没有噪点马赛克之类的。
回复 支持 反对

使用道具 举报

发表于 2017-7-12 21:44:31 | 显示全部楼层
支持楼主,4K123有你更精彩!
回复 支持 反对

使用道具 举报

发表于 2017-7-12 21:50:10 | 显示全部楼层
很不错 很不错 谢谢楼主分享
回复 支持 反对

使用道具 举报

发表于 2017-7-12 21:50:10 | 显示全部楼层
看起来好像不错的样子
回复 支持 反对

使用道具 举报

发表于 2017-7-12 21:52:51 | 显示全部楼层
支持楼主,4K123有你更精彩!
回复 支持 反对

使用道具 举报

发表于 2017-7-12 21:52:58 | 显示全部楼层
看起来好像不错的样子
回复 支持 反对

使用道具 举报

发表于 2017-7-12 21:55:43 | 显示全部楼层
就是看效果情节一般
回复 支持 反对

使用道具 举报

发表于 2017-7-12 21:56:51 | 显示全部楼层
瞧一瞧看一看!~
回复 支持 反对

使用道具 举报

发表于 2017-7-12 21:58:17 | 显示全部楼层
水果蛋糕根深蒂固
回复 支持 反对

使用道具 举报

您需要登录后才可以回帖 登录 | 注册

本版积分规则

手机版|4K知识百科|小黑屋|标签|Sitemap|联系我们|Archiver| 4K中国论坛  

Copyright © 2013-2017 Comsenz Inc.   All Rights Reserved.

Powered by Discuz! X3.1

快速回复 返回顶部 返回列表