找回密码

4K中国论坛

查看: 3879|回复: 369

[4K UHD] 银河护卫队2 4K UHD Guardians.Of.The.Galaxy.Vol.2.2017.2160p

[复制链接]
发表于 2017-10-11 14:48:54 | 显示全部楼层 |阅读模式
银河护卫队2 4K UHD Guardians.Of.The.Galaxy.Vol.2.2017.2160p
◎译  名 银河护卫队2/星际异攻队2(台)/银河守护队2(港)/银护2
◎片  名 Guardians of the Galaxy Vol. 2
◎年  代 2017
◎产  地 美国
◎类  别 动作/科幻/冒险
◎语  言 英语
◎上映日期 2017-04-19(洛杉矶首映)/2017-05-05(中国大陆)/2017-05-05(美国)
◎IMDb评分  7.9/10 from 228,604 users
◎豆瓣评分 8.1/10 from 160,241 users
◎片  长 136分钟
◎导  演 詹姆斯·冈 James Gunn
◎主  演 克里斯·帕拉特 Chris Pratt
      佐伊·索尔达娜 Zoe Saldana
      戴夫·巴蒂斯塔 Dave Batista
      范·迪塞尔 Vin Diesel
      布莱德利·库珀 Bradley Cooper
      凯伦·吉兰 Karen Gillan
      迈克尔·鲁克 Michael Rooker
      庞·克莱门捷夫 Pom Klementieff
      伊丽莎白·德比茨基 Elizabeth Debicki
      肖恩·冈 Sean Gunn
      库尔特·拉塞尔 Kurt Russell
      克里斯·沙利文 Chris Sullivan
      大卫·哈塞尔霍夫 David Hasselhoff
      西尔维斯特·史泰龙 Sylvester Stallone
      杨紫琼 Michelle Yeoh

◎简  介

  火箭浣熊(布莱德利·库珀 Bradley Cooper 饰)偷走了大祭司阿耶莎(伊丽莎白·德比齐 Elizabeth Debicki 饰)的能量电池,包括星爵(克里斯·帕拉特 Chris Pratt 饰)、卡魔拉(佐伊·索尔达娜 Zoe Saldana 饰)、德拉克斯(戴夫·巴蒂斯塔 Dave Bautista 饰)在内的一行人遭到了后者派出的舰队的袭击。一个神秘人物乘坐着飞船救下了银河护卫队的众人,而驾驶着飞船的不是别人,竟然正是星爵的亲生父亲伊戈(库尔特·拉塞尔 Kurt Russell 饰)。
  在伊戈的带领下,星爵、卡魔拉和德拉克斯来到了由伊戈一手制造的星球上,而剩下的成员们则着手修复损坏的飞船。那边厢,阿耶莎委托勇度(迈克尔·鲁克 Michael Rooker 饰)抓住星爵替自己报仇,而卡魔拉亦渐渐发现了伊戈和善面目下隐藏的巨大阴谋。

蓝光原盘
游客,如果您要查看本帖隐藏内容请回复

DISC INFO:

Disc Title:     Guardians.Of.The.Galaxy.Vol.2.2017.2160p.BluRay.HEVC.TrueHD.7.1.Atmos-BHD
Disc Size:      65,730,276,198 bytes
Protection:     AACS2
BD-Java:        Yes
Extras:         Ultra HD
BDInfo:         0.5.8.6 (compatible layout created by DVDFab 10.0.6.2)

PLAYLIST REPORT:

Name:                   00800.MPLS  
Length:                 2:15:46.429 (h:m:s.ms)
Size:                   65,088,577,536 bytes
Total Bitrate:          63.92 Mbps

VIDEO:

Codec                   Bitrate             Description   
-----                   -------             -----------   
MPEG-H HEVC Video       45355 kbps          2160p / 23.976 fps / 16:9 / Main 10 Profile 5.1 High / 4:2:0 / 10 bits / HDR / BT.2020 /

AUDIO:

Codec                           Language        Bitrate         Description   
-----                           --------        -------         -----------   
Dolby Atmos/TrueHD Audio        English         8148 kbps       7.1-Atmos / 48 kHz / 8148 kbps / 24-bit (AC3 Core: 5.1 / 48 kHz / 640 kbps)
Dolby Digital Plus Audio        English         448 kbps        5.1 / 48 kHz / 448 kbps
Dolby Digital Audio             English         320 kbps        2.0 / 48 kHz / 320 kbps
Dolby Digital Audio             French          640 kbps        5.1 / 48 kHz / 640 kbps
Dolby Digital Plus Audio        Spanish         448 kbps        5.1 / 48 kHz / 448 kbps
Dolby Digital Plus Audio        French          448 kbps        5.1 / 48 kHz / 448 kbps
Dolby Digital Plus Audio        German          448 kbps        5.1 / 48 kHz / 448 kbps
Dolby Digital Plus Audio        Japanese        448 kbps        5.1 / 48 kHz / 448 kbps

SUBTITLES:

Codec                           Language        Bitrate         Description   
-----                           --------        -------         -----------   
Presentation Graphics           English         35.858 kbps                    
Presentation Graphics           French          29.598 kbps                    
Presentation Graphics           Spanish         29.779 kbps                    
Presentation Graphics           Chinese         17.533 kbps                    
Presentation Graphics           French          25.787 kbps                    
Presentation Graphics           German          31.14 kbps                     
Presentation Graphics           Japanese        22.202 kbps                    
Presentation Graphics           Chinese         20.519 kbps                    
Presentation Graphics           French          0.59 kbps                     
Presentation Graphics           Spanish         0.603 kbps                     
Presentation Graphics           French          0.131 kbps                     
Presentation Graphics           German          0.065 kbps                     
Presentation Graphics           Japanese        0.61 kbps

REMUX
游客,如果您要查看本帖隐藏内容请回复

Video
ID                                       : 1
Format                                   : HEVC
Format/Info                              : High Efficiency Video Coding
Format profile                           : Main 10@L5.1@High
Codec ID                                 : V_MPEGH/ISO/HEVC
Duration                                 : 2 h 15 min
Bit rate                                 : 45.0 Mb/s
Width                                    : 3 840 pixels
Height                                   : 2 160 pixels
Display aspect ratio                     : 16:9
Frame rate mode                          : Constant
Frame rate                               : 23.976 (24000/1001) FPS
Color space                              : YUV
Chroma subsampling                       : 4:2:0 (Type 2)
Bit depth                                : 10 bits
Bits/(Pixel*Frame)                       : 0.227
Stream size                              : 42.7 GiB (71%)
Title                                    : Guardians.Of.The.Galaxy.Vol.2.2017.2160p.BluRay.REMUX.HEVC.DTS-HD.MA.TrueHD.7.1.Atmos-FGT
Default                                  : Yes
Forced                                   : No
Color range                              : Limited
Color primaries                          : BT.2020
Transfer characteristics                 : SMPTE ST 2084
Matrix coefficients                      : BT.2020 non-constant
Mastering display color primaries        : R: x=0.680000 y=0.320000, G: x=0.265000 y=0.690000, B: x=0.150000 y=0.060000, White point: x=0.312700 y=0.329000
Mastering display luminance              : min: 0.0050 cd/m2, max: 1000.0000 cd/m2

Audio #1
ID                                       : 2
Format                                   : TrueHD
Format profile                           : TrueHD+Atmos / TrueHD
Codec ID                                 : A_TRUEHD
Duration                                 : 2 h 15 min
Bit rate mode                            : Variable
Bit rate                                 : 7 508 kb/s
Maximum bit rate                         : 11.3 Mb/s
Channel(s)                               : Object Based / 8 channels
Channel positions                        : Object Based / Front: L C R, Side: L R, Back: L R, LFE
Sampling rate                            :  / 48.0 kHz
Frame rate                               : 1 200.000 FPS (40 spf)
Compression mode                         : Lossless
Delay relative to video                  : 32 ms
Stream size                              : 7.12 GiB (12%)
Title                                    : Guardians.Of.The.Galaxy.Vol.2.2017.2160p.BluRay.REMUX.HEVC.DTS-HD.MA.TrueHD.7.1.Atmos-FGT
Language                                 : English
Default                                  : Yes
Forced                                   : No
......

TV应用下载
回复

使用道具 举报

 楼主| 发表于 2017-10-11 14:50:03 | 显示全部楼层
终于破解漫威的了,超不厚道的公司,1080p都不是全景声,这次必须洗板,二刷!
回复 支持 反对

使用道具 举报

 楼主| 发表于 2017-10-11 14:51:35 | 显示全部楼层
另外以前的HDR片子不要下了,都是国外特殊设备录制的,收藏没意义。
现在UHD看来算是破解了,下这种!银河护卫队2 4K UHD Guardians.Of.The.Galaxy.Vol.2.2017.2160p
回复 支持 反对

使用道具 举报

发表于 2017-10-11 17:21:59 | 显示全部楼层
太好啦!谢谢版主的无私分享!
回复 支持 反对

使用道具 举报

发表于 2017-10-11 17:51:47 | 显示全部楼层
谢谢楼主了!!!
回复 支持 反对

使用道具 举报

发表于 2017-10-11 17:58:40 | 显示全部楼层
看起来好像不错的样子
回复 支持 反对

使用道具 举报

发表于 2017-10-11 18:08:22 | 显示全部楼层
谢谢分享吧
回复 支持 反对

使用道具 举报

发表于 2017-10-11 18:23:51 | 显示全部楼层
洗版了,洗洗更健康
回复 支持 反对

使用道具 举报

发表于 2017-10-11 18:29:55 | 显示全部楼层
谢谢楼主分享
回复 支持 反对

使用道具 举报

发表于 2017-10-11 18:31:03 | 显示全部楼层
支持楼主,4K123有你更精彩!
回复 支持 反对

使用道具 举报

您需要登录后才可以回帖 登录 | 注册

本版积分规则

手机版|4K知识百科|小黑屋|标签|Sitemap|联系我们|Archiver| 4K中国论坛  

Copyright © 2013-2017 Comsenz Inc.   All Rights Reserved.

Powered by Discuz! X3.1