找回密码
 注册

QQ登录

只需一步,快速开始

索尼4K演示片:世界遗产京都 - 日本历史文化千年古都、色彩浓郁![83mbps/1.39G]

6360
回复
2307203
查看
  [复制链接]
来源:4K视频下载 2015-7-27 10:45:38 |阅读模式
世界遗产京都The World Heritage Kyoto (1).jpg
世界遗产京都The World Heritage Kyoto (2).jpg
世界遗产京都The World Heritage Kyoto (4).jpg
世界遗产京都The World Heritage Kyoto (5).jpg
世界遗产京都The World Heritage Kyoto (6).jpg
世界遗产京都The World Heritage Kyoto (8).jpg
世界遗产京都The World Heritage Kyoto (9).jpg
世界遗产京都The World Heritage Kyoto (10).jpg

4K视频:
Complete name                  : G:\[索尼.4K.演示片]世界遗产京都The World Heritage Kyoto.mkv
File size                      : 1.39 GiB
Duration                    : 2mn 23s
Overall bit rate          : 83.5 Mbps
Format                       : AVC
Bit rate                       : 83.4 Mbps
Width                         : 3 840 pixels
Height                        : 2 160 pixels
Display aspect ratio   : 16:9
Frame rate                  : 29.970 fps
Color space                : YUV
Chroma subsampling   : 4:2:0
Bit depth                    : 8 bits
Stream size                 : 1.39 GiB

Audio
Format                       : AAC
Codec ID                   : 40
Duration                    : 2mn 23s
Bit rate                       : 128 Kbps
Nominal bit rate        : 136 bps
Maximum bit rate     : 576 Kbps
Channel(s)                 : 2 channels
Channel positions     : Front: L R
Sampling rate           : 48.0 KHz
Stream size                : 2.18 MiB

京都曾作为日本的国都历时1000余年,享有“千年古都”之称。京都古称平安京,城市存在的历史可以追溯到7000年以前。

是体验日本文化旅游胜地。

百度盘:
游客,如果您要查看本帖隐藏内容请回复

2015-7-27 10:56:11
感謝樓主分享~下載來收藏!!!
2015-7-27 10:59:55
又是涨姿势了
2015-7-27 11:16:18
又是涨姿势了
2015-7-27 11:16:47
谢谢分享谢谢分享
2015-7-27 11:25:33
感謝楼主分享
2015-7-27 11:27:49
支持楼主,4K123有你更精彩!
2015-7-27 11:33:05
去过哪里 很感动
2015-7-27 11:41:47
提示: 作者被禁止或删除 内容自动屏蔽
2015-7-27 11:45:09
支持楼主,4K123有你更精彩!
您需要登录后才可以回帖 登录 | 注册
当贝