找回密码
 注册

QQ登录

只需一步,快速开始

七彩云南.红土地 4000 × 1688超宽屏!

1328
回复
195559
查看
[复制链接]
来源:4K视频下载 2015-8-27 17:13:34 |阅读模式
我是云南的每次到东川红土地都有不一样的收获,那的天气真的一天一个样
当然这几天昆明天天阴天……
七彩云南红土地.mp4_20150827_094542.265.jpg

纯手工打造(加上了公司LOGO,对不起各位了),

七彩云南红土地.mp4_20150827_094619.250.jpg

七彩云南红土地.mp4_20150827_094643.000.jpg

七彩云南红土地.mp4_20150827_094703.031.jpg

七彩云南红土地.mp4_20150827_094706.593.jpg

七彩云南红土地.mp4_20150827_094815.375.jpg

七彩云南红土地.mp4_20150827_094822.406.jpg

七彩云南红土地.mp4_20150827_094852.031.jpg

七彩云南红土地.mp4_20150827_094846.375.jpg

七彩云南红土地.mp4_20150827_094904.187.jpg

七彩云南红土地.mp4_20150827_094929.296.jpg


Video
Format                         : AVC
Format settings, CABAC         : Yes
Format settings, ReFrames      : 3 frames
Codec ID                       : avc1
Codec ID/Info                  : Advanced Video Coding
Duration                       : 4mn 27s
Bit rate                       : 101 Mbps
Width                          : 4 000 pixels
Height                         : 1 668 pixels
Display aspect ratio           : 2.40:1
Frame rate mode                : Constant
Frame rate                     : 25.000 fps
Standard                       : PAL
Color space                    : YUV
Chroma subsampling             : 4:2:0
Bit depth                      : 8 bits
Scan type                      : Progressive
Bits/(Pixel*Frame)             : 0.607
Stream size                    : 3.15 GiB (100%)
Language                       : English
Encoded date                   : UTC 2015-08-26 01:18:07
Tagged date                    : UTC 2015-08-26 01:18:07
Color range                    : Limited
Color primaries                : BT.709
Transfer characteristics       : BT.709
Matrix coefficients            : BT.709

Audio
ID                             : 2
Format                         : AAC
Format/Info                    : Advanced Audio Codec
Format profile                 : LC
Codec ID                       : 40
Duration                       : 4mn 27s
Source duration                : 4mn 27s
Bit rate mode                  : Variable
Bit rate                       : 317 Kbps
Maximum bit rate               : 408 Kbps
Channel(s)                     : 2 channels
Channel positions              : Front: L R
Sampling rate                  : 48.0 KHz
Compression mode               : Lossy
Stream size                    : 10.1 MiB (0%)
Source stream size             : 10.1 MiB (0%)
Language                       : English
Encoded date                   : UTC 2015-08-26 01:18:07
Tagged date                    : UTC 2015-08-26 01:18:07
游客,如果您要查看本帖隐藏内容请回复





七彩云南红土地.mp4_20150827_094756.062.jpg
匿名  发表于 1970-1-1 08:00:00
post_deleted
TV应用下载
2015-8-27 17:44:56
这是视频吗?楼主
2015-8-27 17:47:44
感谢。楼主自己拍摄制作的吗
2015-8-27 17:52:33
支持楼主,4K123有你更精彩!
2015-8-27 18:04:15
我家4K电视又可以炫机了
2015-8-27 18:24:43
看起来好像不错的样子
2015-8-27 18:25:39
感谢分享
2015-8-27 18:37:46
支持楼主,感谢分享
2015-8-27 18:56:10
新手前来学习4K
您需要登录后才可以回帖 登录 | 注册
当贝