找回密码
 注册

QQ登录

只需一步,快速开始

Samsung三星H.265编码4K视频(捷克风光The Quiet Czech)别致浪漫色彩2160p

10291
回复
294803
查看
  [复制链接]
来源:4K视频下载 2014-5-15 17:20:30 |阅读模式
01 (2).JPG
01 (1).JPG
01.JPG


Genera
ID                             : 0 (0x0)
Complete name                  : E:\UHD_PQ_The_Quiet_Czech[安静的捷克].ts
Format                         : MPEG-TS
File size                      : 1.23 GiB
Duration                       : 3mn 24s
Overall bit rate mode          : Constant
Overall bit rate               : 51.4 Mbps

Video
ID                             : 257 (0x101)
Menu ID                        : 1 (0x1)
Format                         : HEVC
Format/Info                    : High Efficiency Video Coding
Codec ID                       : 36
Duration                       : 3mn 23s
Bit rate                       : 48.7 Mbps
Stream size                    : 1.16 GiB (94%)
url                                :4K123.COM

Audio
ID                             : 258 (0x102)
Menu ID                        : 1 (0x1)
Format                         : AAC
Format/Info                    : Advanced Audio Codec
Format version                 : Version 4
Format profile                 : LC
Muxing mode                    : ADTS
Codec ID                       : 15
Duration                       : 3mn 23s
Bit rate mode                  : Variable
Bit rate                       : 126 Kbps
Channel(s)                     : 2 channels
Channel positions              : Front: L R
Sampling rate                  : 48.0 KHz
Compression mode               : Lossy
Stream size                    : 3.07 MiB (0%)



HEVC/H.265最新编码方式4K视频

此视频严重考验硬件配置,以及播放器要求,如果你家硬件配置太低了,还是放弃吧!

感谢:tony0628

Samsung三星UHD PQ The Quiet Czech 1.23G

百度盘:
游客,如果您要查看本帖隐藏内容请回复

TV应用下载
2014-5-15 17:23:57
H.265最新编码 看看怎么样
TV应用下载
2014-5-15 17:24:11
这个在卖场看过!实在惊艳啊
2014-5-15 17:24:36
试试三星电视看看能放不
2014-5-15 17:25:49
好看的片子啊
2014-5-15 17:36:49
thank very much
2014-5-15 17:37:10
H.265最新编码 看看怎么样
2014-5-15 17:41:21
真是漂亮!!!!
2014-5-15 17:42:20
H265解码看看啊
2014-5-15 17:43:51
非常感谢!!!
您需要登录后才可以回帖 登录 | 注册