找回密码
 注册

QQ登录

只需一步,快速开始

Samsung三星4K演示片:无与伦比的小村庄(瑞士Lovely Swiss)H.265编码[1.3G]

21836
回复
1315053
查看
  [复制链接]
来源:4K视频下载 2014-5-15 17:42:54 |阅读模式
04 (1).JPG
04 (2).JPG
04 (3).JPG
04 (4).JPG

General
ID                             : 0 (0x0)
Complete name                  : E:\4K中国\UHD_PQ_Lovely_Swiss[瑞士风景].ts
Format                         : MPEG-TS
File size                      : 1.33 GiB
Duration                       : 3mn 41s
Overall bit rate mode          : Constant
Overall bit rate               : 51.5 Mbps

Video
ID                             : 257 (0x101)
Menu ID                        : 1 (0x1)
Format                         : HEVC
Format/Info                    : High Efficiency Video Coding
Codec ID                       : 36
Duration                       : 3mn 40s
Bit rate                       : 48.8 Mbps
Stream size                    : 1.26 GiB (94%)
URL                             :4K123.Com

Audio
ID                             : 258 (0x102)
Menu ID                        : 1 (0x1)
Format                         : AAC
Format/Info                    : Advanced Audio Codec
Format version                 : Version 4
Format profile                 : LC
Muxing mode                    : ADTS
Codec ID                       : 15
Duration                       : 3mn 40s
Bit rate mode                  : Variable
Bit rate                       : 126 Kbps
Channel(s)                     : 2 channels
Channel positions              : Front: L R
Sampling rate                  : 48.0 KHz
Compression mode               : Lossy
Stream size                    : 3.31 MiB (0%)

HEVC/H.265最新编码方式4K视频

此视频严重考验硬件配置,以及播放器要求,如果你家硬件配置太低了,还是放弃吧!

感谢:tony0628

Samsung三星4K演示片:美得无与伦比的小村庄(瑞士Lovely Swiss)H.265编码/1.3G/百度盘

百度盘:
游客,如果您要查看本帖隐藏内容请回复

2014-5-15 17:44:37
感谢楼主 分享收藏了
TV应用下载
2014-5-15 17:49:01
提示: 该帖被管理员或版主屏蔽
2014-5-15 18:28:54
三星4K演示片:美得无与伦比的小村庄
2014-5-15 18:31:12
好看的风光片
2014-5-15 18:37:58
这个是精品,谢谢楼主。
2014-5-15 18:43:08
谢谢分享
2014-5-15 18:46:13
看着漂亮 下来欣赏
2014-5-15 18:46:48
感谢分享~~~~~~~~~
2014-5-15 18:47:42
好东西啊,谢谢分享
您需要登录后才可以回帖 登录 | 注册
当贝