找回密码
 注册

QQ登录

只需一步,快速开始

虐机4K视频:海信.斗牛与狂欢4in1 HEVC_100Mbps_60fps_12bit【2G】

1169
回复
64999
查看
[复制链接]
来源:4K视频下载 2016-3-14 09:37:19 |阅读模式
虐机4K视频:海信.斗牛与狂欢4in1 HEVC_100Mbps_60fps_12bit









General
Complete name                  : [4K虐机视频] 海信.斗牛与狂欢4in1 HEVC_100Mbps_60fps_12bit .mp4
Format                         : hvc1
Codec ID                       : hvc1 (iso4/hvc1)
File size                      : 2.01 GiB
Duration                       : 2mn 52s
Overall bit rate mode          : Variable
Overall bit rate               : 100.0 Mbps
Encoded date                   : UTC 2016-01-13 12:05:17
Tagged date                    : UTC 2016-01-13 12:05:17
Writing application            : COMPANY NAME

Video
ID                             : 1
Format                         : HEVC
Format/Info                    : High Efficiency Video Coding
Format profile                 : @L6.1@Main
Codec ID                       : hvc1
Codec ID/Info                  : High Efficiency Video Coding
Duration                       : 2mn 52s
Bit rate                       : 99.8 Mbps
Maximum bit rate               : 155 Mbps
Width                          : 3 840 pixels
Height                         : 2 160 pixels
Display aspect ratio           : 16:9
Frame rate mode                : Constant
Frame rate                     : 59.940 (60000/1001) fps
Color space                    : YUV
Chroma subsampling             : 4:2:0
Bit depth                      : 12 bits
Bits/(Pixel*Frame)             : 0.201
Stream size                    : 2.00 GiB (100%)
Writing library                : x265 1.8+188-:[Windows][GCC 5.2.0][64 bit] 12bit
Encoding settings              : wpp / ctu=64 / min-cu-size=8 / max-tu-size=32 / tu-intra-depth=1 / tu-inter-depth=1 / me=1 / subme=2 / merange=57 / no-rect / no-amp / max-merge=2 / temporal-mvp / no-early-skip / rdpenalty=0 / no-tskip / no-tskip-fast / strong-intra-smoothing / no-lossless / cu-lossless / no-constrained-intra / no-fast-intra / no-open-gop / no-temporal-layers / interlace=0 / keyint=250 / min-keyint=25 / scenecut=40 / rc-lookahead=20 / lookahead-slices=8 / bframes=4 / bframe-bias=0 / b-adapt=2 / ref=3 / limit-refs=0 / limit-modes / weightp / no-weightb / aq-mode=1 / qg-size=32 / aq-strength=1.00 / cbqpoffs=0 / crqpoffs=0 / rd=3 / psy-rd=1.00 / rdoq-level=0 / psy-rdoq=0.00 / signhide / deblock / sao / no-sao-non-deblock / b-pyramid / cutree / no-intra-refresh / rc=2 / pass / bitrate=100000 / qcomp=0.60 / qpmin=0 / qpmax=51 / qpstep=4 / cplxblur=20.0 / qblur=0.5 / ipratio=1.40 / pbratio=1.30
Encoded date                   : UTC 2016-01-13 12:05:17
Tagged date                    : UTC 2016-01-13 12:05:33
Color range                    : Limited
Matrix coefficients            : BT.709

Audio
ID                             : 2
Format                         : AAC
Format/Info                    : Advanced Audio Codec
Format profile                 : LC
Codec ID                       : 40
Duration                       : 2mn 52s
Bit rate mode                  : Variable
Bit rate                       : 192 Kbps
Maximum bit rate               : 201 Kbps
Channel(s)                     : 2 channels
Channel positions              : Front: L R
Sampling rate                  : 44.1 KHz
Frame rate                     : 43.066 fps (1024 spf)
Compression mode               : Lossy
Stream size                    : 3.95 MiB (0%)
Title                          : AAC#audio:lang=en@GPAC0.5.2-DEV-rev1110-g9f2bf6e-ab-suite
Encoded date                   : UTC 2016-01-13 12:05:32
Tagged date                    : UTC 2016-01-13 12:05:33

(原文刘302)
百度云盘
游客,如果您要查看本帖隐藏内容请回复



TV应用下载
2016-3-14 09:41:38
海信.斗牛与狂欢
TV应用下载
2016-3-14 09:41:57
海信.斗牛与狂欢
2016-3-14 09:42:12
不错,大力支持!
2016-3-14 09:42:20
海信.斗牛与狂欢
2016-3-14 09:47:03
这台虐了
2016-3-14 10:13:04
在视频上一睹瑞丽美丽的风光
2016-3-14 10:19:37
贴膜之后返回键有点不灵敏了,有时候需要点几次才有效
2016-3-14 10:28:49
新手前来学习4K
2016-3-14 10:29:35
支持楼主,4K123有你更精彩!
您需要登录后才可以回帖 登录 | 注册