找回密码
 注册

QQ登录

只需一步,快速开始

[4K真人系列短片]全境封锁:特工起源 Tom Clancy's the Division: Agent Origins 2...

2943
回复
690201
查看
[复制链接]
来源:4K电影预告与短片 2016-3-18 11:25:49 |阅读模式
[4K真人系列短片]全境封锁:特工起源 Tom Clancy's the Division: Agent Origins 2016[2160P/MKV/1.92GB]
Tom Clancy's the Division Agent Origins.jpg
译  名:全境封锁:特工起源


片  名:Tom Clancy's the Division: Agent Origins


年  代:2016


国  家:美国


类  别:动作/短片


语  言:英语


音        频:AC-3 5.1


视频尺寸:3792 x 1600


文件大小:1.92GiB


上映日期:2016-01-19


IMDb评分: 6.2/10 from 601 users


IMDb链接:http://www.imdb.com/title/tt5354588/


豆瓣评分:7.0/10 from 31 users


豆瓣链接:http://movie.douban.com/subject/26725412/


片  长:31分钟


导  演:德文·格雷厄姆 Devin Graham


主  演:Matt Lynch
      
                  Sasha Andreev
      
                  Amanda Day


简介


育碧为《全境封锁》拍摄一部真人系列短片《特工起源》介绍游戏的世界观。

      《全境封锁:特工起源》共分为四个部分,由四个不同的团队制作。讲述了四名休眠特工在纽约遭受病毒危机后苏醒并聚在一起最终解救一起人质危机。四部短片主题各不相同但又有联系,在最后一部里汇聚。特效非常棒,枪战,动作,爆炸,追击一个都不少。


General
Unique ID : 228432183303217987178972638813920742295(ABDA702E6F5D5AFBA19C5FBC9DE8CB97)
Complete name : Tom.Clancy's.The.Division.Agent.Origins.2016.2160p.Amazon.WEBRip.x264.DD5.1-ETRG.mkv
Format : Matroska
Format version : Version 4 / Version 2
File size : 1.92GiB
Duration : 31mn 54s
Overall bit rate : 8615 Kbps
Encoded date : UTC 2016-03-16 13:57:05
Writing application : mkvmerge v8.2.0 ('World of Adventure') 64bit
Writing library : libebml v1.3.1 + libmatroska v1.4.2

Video
ID : 1
Format : AVC
Format/Info : Advanced Video Codec
Format profile : High@L5.1
Format settings, CABAC : Yes
Format settings, ReFrames : 4 frames
Codec ID : V_MPEG4/ISO/AVC
Duration : 31mn 54s
Bit rate : 7999 Kbps
Width : 3792 pixels
Height : 1600 pixels
Display aspect ratio : 2.40:1
Frame rate mode : Constant
Frame rate : 23.976 fps (24000/1001)fps
Color space : YUV
Chroma subsampling : 4:2:0
Bit depth : 8 bits
Scan type : Progressive
Bits/(Pixel*Frame) : 0.055
Stream size : 1.78 GiB (93%)
Writing library : x264 core 144 r2525 7599210
Encoding settings : cabac=1 / ref=1 / deblock=1:-1:-1 / analyse=0x3:0x113 / me=umh / subme=9 / psy=1 /  psy_rd=1.00:0.15 / mixed_ref=0 / me_range=24 / chroma_me=1 / trellis=2 / 8x8dct=1 / cqm=0 / deadzone=21,11 / fast_pskip=0 / chroma_qp_offset=-3/ threads=48 /
Default : Yes
Forced : No
Color range : Limited
Color primaries : BT.709
Matrix coefficients : BT.709

Audio
ID : 2
Format : AC-3
Format/Info : Audio Coding 3
Mode extension : CM (complete main)
Format settings, Endianness : Big
Codec ID : A_AC3
Duration : 31mn 54s
Bit rate mode : Constant  
Bit rate : 640 Kbps  
Channel(s) : 6 channels
Channel positions : Front: L C R, Side: L R, LFE
Sampling rate : 48.0 KHz
Frame rate : 31.250 fps (1536 spf)
Compression mode : Lossy
Stream size : 146 MiB (7%)
Language : English
Default : Yes
Forced : No
Tom.Clancy's.The.Division.Agent.Origins.2016.2160p.Amazon.WEBRip.x264.DD5.1.jpg Tom.Clancy's.The.Division.Agent.Origins.2016.2160p.Amazon.WEBRip.x264.DD5.1.jpg Tom.Clancy's.The.Division.Agent.Origins.2016.2160p.Amazon.WEBRip.x264.DD5.1.jpg Tom.Clancy's.The.Division.Agent.Origins.2016.2160p.Amazon.WEBRip.x264.DD5.1.jpg Tom.Clancy's.The.Division.Agent.Origins.2016.2160p.Amazon.WEBRip.x264.DD5.1.jpg Tom.Clancy's.The.Division.Agent.Origins.2016.2160p.Amazon.WEBRip.x264.DD5.1.jpg Tom.Clancy's.The.Division.Agent.Origins.2016.2160p.Amazon.WEBRip.x264.DD5.1.jpg Tom.Clancy's.The.Division.Agent.Origins.2016.2160p.Amazon.WEBRip.x264.DD5.1.jpg Tom.Clancy's.The.Division.Agent.Origins.2016.2160p.Amazon.WEBRip.x264.DD5.1.jpg Tom.Clancy's.The.Division.Agent.Origins.2016.2160p.Amazon.WEBRip.x264.DD5.1.jpg Tom.Clancy's.The.Division.Agent.Origins.2016.2160p.Amazon.WEBRip.x264.DD5.1.jpg
MKV百度云盘
游客,如果您要查看本帖隐藏内容请回复


BT种子文件百度云盘
游客,如果您要查看本帖隐藏内容请回复



2016-3-18 11:45:42
这个有必要看看,非常感谢楼主分享
2016-3-18 12:21:04
RE: [4K电影]钢铁侠 Iron Man 2008[2160P/MKV/12.1GB] [修改]
2016-3-18 12:22:08
RE: [4K电影]钢铁侠 Iron Man 2008[2160P/MKV/12.1GB] [修改]
2016-3-18 12:31:09
看起来好像不错的样子
2016-3-18 12:32:45
提示: 作者被禁止或删除 内容自动屏蔽
2016-3-18 12:40:20
支持楼主,4K123有你更精彩!
2016-3-18 12:47:47
哇,好耶。这么好的资源很难得。
2016-3-18 12:51:22
果断马克mark
2016-3-18 12:55:56

这个有必要看看,非常感谢楼主分享
您需要登录后才可以回帖 登录 | 注册
当贝