找回密码
 注册

QQ登录

只需一步,快速开始

[4K足球赛]前所未有的震撼 - 2016年法国欧洲杯闭幕式决赛(2016-07-10)[2160P/MKV/4...

3812
回复
475181
查看
  [复制链接]
来源:4K电影预告与短片 2016-7-18 05:29:17 |阅读模式
[4K足球赛]前所未有的震撼 - 2016年法国欧洲杯闭幕式决赛(2016-07-10)[2160P/MKV/41.2GB]
(决赛球队场地练球+精彩赛事回顾+闭幕式+决赛+颁奖礼)
(葡萄牙 VS 法国 Portugal vs France)(3小时39分钟全场)
(英语AC-3 5.1现场环绕声/无旁述原始AC-3 5.1现场环绕声)
EURO 2016.jpg
General #1
Unique ID : 242557033262702288186915560698280754735(0xB67AC90D3CC73009849845C5EFFD3E2F)
Complete name : UEFA.Euro.2016.Final.France.vs.Portugal.TRK4K.2160p.H265.Multi.Language.mkv
Format : Matroska
Format version : Version 4 / Version 2
File size : 41.2 GiB
Duration : 3h 39mn
Overall bit rate : 26.8 Mbps
Encoded date : UTC 2016-07-14 19:41:15
Writing application : mkvmerge v9.2.0 ('Photograph') 64bit
Writing library : libebml v1.3.3 + libmatroska v1.4.4

Video #1
ID : 1
Format : HEVC
Format/Info : High Efficiency Video Coding
Codec ID : V_MPEGH/ISO/HEVC
Duration : 3h 39mn
Bit rate : 25.0 Mbps
Width : 3840 pixels
Height : 2160 pixels
Display aspect ratio : 16:9
Frame rate mode : Constant
Frame rate : 50.000 fps
Color space : YUV
Bit depth : 10 bits
Bits/(Pixel*Frame) : 0.060
Stream size : 38.4 GiB (93%)
Default : Yes
Forced : No

Audio #1
ID : 2
Format : E-AC-3
Format/Info : Audio Coding 3
Format settings, Endianness : Big
Codec ID : A_EAC3
Duration : 3h 39mn
Bit rate mode : Constant  
Bit rate : 256 Kbps  
Channel(s) : 6 channels
Channel positions : Front: Front: L C R, Side: L R, LFE
Sampling rate : 48.0 KHz
Frame rate : 187.500 fps (256 spf)
Compression mode : Lossy
Delay relative to video : 158ms
Stream size : 403 MiB (1%)
Language : Turkish
Default : Yes
Forced : No

Audio #2
ID : 3
Format : AAC
Format/Info : Advanced Audio Codec
Mode extension : HE-AAC / LC
Codec ID : A_AAC
Duration : 3h 39mn
Bit rate : 78.7 Kbps  
Channel(s) : 2 channels
Channel positions : Front: L R
Sampling rate : 48.0 KHz / 24.0 KHz
Frame rate : 23.438 fps (1024 spf)
Compression mode : Lossy
Delay relative to video : 158ms
Stream size : 124 MiB (0%)
Language : Turkish
Default : No
Forced : No

Audio #3
ID : 4
Format : AC-3
Format/Info : Audio Coding 3
Mode extension : CM (complete main)
Format settings, Endianness : Big
Codec ID : A_AC3
Duration : 3h 39mn
Bit rate mode : Constant  
Bit rate : 192 Kbps  
Channel(s) : 2 channels
Channel positions : Front: L R
Sampling rate : 48.0 KHz
Frame rate : 31.250 fps (1536 spf)
Compression mode : Lossy
Stream size : 302 MiB (1%)
Language : Russian
Default : No
Forced : No

Audio #4
ID : 5
Format : AC-3
Format/Info : Audio Coding 3
Mode extension : CM (complete main)
Format settings, Endianness : Big
Codec ID : A_AC3
Duration : 3h 39mn
Bit rate mode : Constant  
Bit rate : 192 Kbps  
Channel(s) : 2 channels
Channel positions : Front: L R
Sampling rate : 48.0 KHz
Frame rate : 31.250 fps (1536 spf)
Compression mode : Lossy
Stream size : 302 MiB (1%)
Language : Russian
Default : No
Forced : No

Audio #5
ID : 6
Format : AC-3
Format/Info : Audio Coding 3
Mode extension : CM (complete main)
Format settings, Endianness : Big
Codec ID : A_AC3
Duration : 3h 39mn
Bit rate mode : Constant  
Bit rate : 448 Kbps  
Channel(s) : 6 channels
Channel positions : Front: Front: L C R, Side: L R, LFE
Sampling rate : 48.0 KHz
Frame rate : 31.250 fps (1536 spf)
Compression mode : Lossy
Stream size : 705 MiB (2%)
Language : English
Default : No
Forced : No

Audio #6
ID : 7
Format : AC-3
Format/Info : Audio Coding 3
Mode extension : CM (complete main)
Format settings, Endianness : Big
Codec ID : A_AC3
Duration : 3h 39mn
Bit rate mode : Constant  
Bit rate : 640 Kbps  
Channel(s) : 6 channels
Channel positions : Front: Front: L C R, Side: L R, LFE
Sampling rate : 48.0 KHz
Frame rate : 31.250 fps (1536 spf)
Compression mode : Lossy
Stream size : 1007 MiB (2%)
Default : No
Forced : No
UEFA.Euro.2016.Final.France.vs.Portugal.TRK4K.2160p.H265.Multi.Language.mkv_2016.jpg UEFA.Euro.2016.Final.France.vs.Portugal.TRK4K.2160p.H265.Multi.Language.mkv_2016.jpg UEFA.Euro.2016.Final.France.vs.Portugal.TRK4K.2160p.H265.Multi.Language.mkv_2016.jpg UEFA.Euro.2016.Final.France.vs.Portugal.TRK4K.2160p.H265.Multi.Language.mkv_2016.jpg UEFA.Euro.2016.Final.France.vs.Portugal.TRK4K.2160p.H265.Multi.Language.mkv_2016.jpg UEFA.Euro.2016.Final.France.vs.Portugal.TRK4K.2160p.H265.Multi.Language.mkv_2016.jpg UEFA.Euro.2016.Final.France.vs.Portugal.TRK4K.2160p.H265.Multi.Language.mkv_2016.jpg UEFA.Euro.2016.Final.France.vs.Portugal.TRK4K.2160p.H265.Multi.Language.mkv_2016.jpg UEFA.Euro.2016.Final.France.vs.Portugal.TRK4K.2160p.H265.Multi.Language.mkv_2016.jpg UEFA.Euro.2016.Final.France.vs.Portugal.TRK4K.2160p.H265.Multi.Language.mkv_2016.jpg UEFA.Euro.2016.Final.France.vs.Portugal.TRK4K.2160p.H265.Multi.Language.mkv_2016.jpg UEFA.Euro.2016.Final.France.vs.Portugal.TRK4K.2160p.H265.Multi.Language.mkv_2016.jpg UEFA.Euro.2016.Final.France.vs.Portugal.TRK4K.2160p.H265.Multi.Language.mkv_2016.jpg UEFA.Euro.2016.Final.France.vs.Portugal.TRK4K.2160p.H265.Multi.Language.mkv_2016.jpg UEFA.Euro.2016.Final.France.vs.Portugal.TRK4K.2160p.H265.Multi.Language.mkv_2016.jpg UEFA.Euro.2016.Final.France.vs.Portugal.TRK4K.2160p.H265.Multi.Language.mkv_2016.jpg UEFA.Euro.2016.Final.France.vs.Portugal.TRK4K.2160p.H265.Multi.Language.mkv_2016.jpg UEFA.Euro.2016.Final.France.vs.Portugal.TRK4K.2160p.H265.Multi.Language.mkv_2016.jpg UEFA.Euro.2016.Final.France.vs.Portugal.TRK4K.2160p.H265.Multi.Language.mkv_2016.jpg UEFA.Euro.2016.Final.France.vs.Portugal.TRK4K.2160p.H265.Multi.Language.mkv_2016.jpg UEFA.Euro.2016.Final.France.vs.Portugal.TRK4K.2160p.H265.Multi.Language.mkv_2016.jpg UEFA.Euro.2016.Final.France.vs.Portugal.TRK4K.2160p.H265.Multi.Language.mkv_2016.jpg UEFA.Euro.2016.Final.France.vs.Portugal.TRK4K.2160p.H265.Multi.Language.mkv_2016.jpg UEFA.Euro.2016.Final.France.vs.Portugal.TRK4K.2160p.H265.Multi.Language.mkv_2016.jpg UEFA.Euro.2016.Final.France.vs.Portugal.TRK4K.2160p.H265.Multi.Language.mkv_2016.jpg UEFA.Euro.2016.Final.France.vs.Portugal.TRK4K.2160p.H265.Multi.Language.mkv_2016.jpg
开始播放时请将声音切换到Audio #5 语AC-3 5.1/Audio #6 无旁述原始AC-3 5.1后再播放!

建议使用极速迅雷来高速下载!最高峰值12MB
播放器: Potplaye/MPC-HC

4K 3840 x 2160 截图原件85.6MB下载
链接: http://pan.baidu.com/s/1bo8kAiN 密码: 1qyw

BT视频种子文件下载
游客,如果您要查看本帖隐藏内容请回复


2016-7-25 20:26:48
今年的欧锦赛已结束,虽然未能留下能久久在脑海中回荡,惊心动魄的赛事,但决赛阶段的比赛还有些可圈可点的场次,能在4K电视机前回味决赛的精彩瞬间还是蛮有意思的,谢谢分享。
TV应用下载
2016-7-21 17:01:56
这片子画质、配乐、摄影、节奏、解说都是上乘之作,时间风景同级别的大片既视感。
2016-7-18 07:31:53
太好啦!谢谢版主的无私分享!
2016-7-18 08:03:22
看起来好像不错的样子
2016-7-18 08:04:22
支持楼主,4K123有你更精彩!
2016-7-18 09:38:22
支持楼主,4K123有你更精彩!
2016-7-18 09:53:51
真是难得给力的资源啊。
2016-7-18 10:31:26
好的,我来试试。
2016-7-18 10:33:32
太好啦!谢谢版主的无私分享!
2016-7-18 10:42:15
不错,大力支持!
2016-7-18 10:42:31
支持楼主,4K123有你更精彩!
您需要登录后才可以回帖 登录 | 注册
当贝