找回密码
 注册

QQ登录

只需一步,快速开始

全球最美城市夜景:4K[迪拜Dubai]无与伦比的华丽璀璨3840×2160p[百度]

39582
回复
909649
查看
  [复制链接]
来源:4K视频下载 2014-9-7 13:09:00 |阅读模式
1.JPG
2.jpg
3.JPG
4.jpg
5.jpg
6.JPG
7.jpg

一座超级土豪的城市,金碧辉煌的城市夜景。samsung三星4K演示片视频。

视频参数信息:

  1. General
  2. ID                             : 0 (0x0)
  3. Complete name                  : T:\4K中国\samsung三星4K演示片uhdtv迪拜Dubai.ts
  4. Format                         : MPEG-TS
  5. File size                      : 656 MiB
  6. Duration                       : 1mn 47s
  7. Overall bit rate mode          : Constant
  8. Overall bit rate               : 51.4 Mbps

  9. Video
  10. ID                             : 257 (0x101)
  11. Menu ID                        : 1 (0x1)
  12. Format                         : HEVC
  13. Format/Info                    : High Efficiency Video Coding
  14. Codec ID                       : 36
  15. Duration                       : 1mn 46s
  16. Bit rate                       : 48.7 Mbps
  17. Stream size                    : 616 MiB (94%)

  18. Audio
  19. ID                             : 258 (0x102)
  20. Menu ID                        : 1 (0x1)
  21. Format                         : AAC
  22. Format/Info                    : Advanced Audio Codec
  23. Format version                 : Version 4
  24. Format profile                 : LC
  25. Muxing mode                    : ADTS
  26. Codec ID                       : 15
  27. Duration                       : 1mn 46s
  28. Bit rate mode                  : Variable
  29. Bit rate                       : 137 Kbps
  30. Channel(s)                     : 2 channels
  31. Channel positions              : Front: L R
  32. Sampling rate                  : 48.0 KHz
  33. Compression mode               : Lossy
  34. Stream size                    : 1.73 MiB (0%)
复制代码


其它关键信息:

+类型:三星4K UHDTV视频演示片
+视频格式:TS
+文件大小:655mb
+视频编码:HEVC/H.265
+PS: H265需要软、硬件支持才能播放。

每一个镜头画面,都值得仔仔细细欣赏,反正我忍不住看了10多遍!

推荐在50寸以上屏幕观看。否则是体验不了这部片的真实感受。

百度盘:
游客,如果您要查看本帖隐藏内容请回复

TV应用下载
2014-9-7 13:10:09
激动人心,无法言表!
TV应用下载
2014-9-7 13:11:11
迪拜就是个用钱堆起了的城市
2014-9-7 13:12:31
强烈支持楼主ing……
2014-9-7 13:13:18
这夜景这是 Beautiful!太赞了
2014-9-7 13:15:16
无比向往的一个城市啊 感谢boss分享
2014-9-7 13:23:46
迪拜确实是很漂亮的地方。
2014-9-7 13:25:38
全球富得漏油的土豪王国,一个沙漠城市被建成这样,实在是牛X
2014-9-7 13:28:00
美丽的沙漠之星!
2014-9-7 13:28:52
Dubai Mall音乐喷泉,每半小时一场,很壮观。
您需要登录后才可以回帖 登录 | 注册