找回密码
 注册

QQ登录

只需一步,快速开始

[4K高清纪录片] 雷德伍德国家公园 2015 [2160P/MP4/20.5GB]

3008
回复
438331
查看
[复制链接]
来源:4K视频下载 2016-7-23 06:56:30 |阅读模式
[4K高清纪录片] 雷德伍德国家公园 2015 [2160P/MP4/20.5GB]
Redwood.National.and.State.Parks.Episode.1.2015.2160p.WEB-DL.Eng.ULTRAHDCLUB.mp4.jpg
雷德伍德国家公园身为世界上一些最高的古老海岸红杉的家园,这片美丽的土地覆盖了美国加利福尼亚州北部59公里的海岸线,占地面积450平方公里。在这里可以看到云杉、铁杉、花旗松、浆果灌木、肾蕨和丰富的林地生物贯穿大河和溪流。雷德伍德国家公园堪称一片壮阔的森林,它有着庞大得令人吃惊的森林占有率。这些巨大的树能有30层楼房那样高,比世界上任何其他生物都要高,站在这些大树旁边,成年人看上去就像是迷你的玩具人像。

General
Complete name : Redwood.National.and.State.Parks.Episode.1.2015.2160p.WEB-DL.Eng.ULTRAHDCLUB.mp4
Format : MPEG-4
Format version : Base Media / Version 2
Codec ID : mp42 (mp42/mp41)
File size : 20.5 GiB
Duration : 45 min
Overall bit rate mode : Variable
Overall bit rate : 64.2 Mbps
Encoded date : UTC 2015-11-24 02:34:58
Tagged date : UTC 2015-11-24 02:34:58

Video
ID : 1
Format : AVC
Format/Info : Advanced Video Codec
Format profile : High@L5.1
Format settings, CABAC : Yes
Format settings, ReFrames : 3 frames
Codec ID : avc1
Codec ID/lnfo : Advanced Video Coding
Duration : 45 min
Bit rate : 63.7 Mbps
Width : 3840 pixels
Height : 2160 pixels
Display aspect ratio : 16:9
Frame rate mode : Constant
Frame rate : 24.000 FPS
Standard : NTSC
Color space : YUV
Chroma subsampling : 4:2:0
Bit depth : 8 bits
Scan type : Progressive
Bits/(Pixel*Frame) : 0.320
Stream size : 20.4 GiB (99%)
Language : English
Encoded date : UTC 2015-11-24 02:34:58
Tagged date : UTC 2015-11-24 02:34:58
Color range : Limited
Color primaries : BT.709
Transfer characteristics : BT.709
Matrix coefficients : BT.709

Audio
ID : 2
Format : AAC
Format/Info : Advanced Audio Codec
Mode extension : LC
Codec ID : 40
Duration : 45 min
Source duration : 45 min
Bit rate mode : Variable
Bit rate : 509 Kbps
Maximum bit rate : 753 Kbps
Channel(s) : 6 channels
Channel positions : Front: L C R, Side: L R, LFE
Sampling rate : 48.0 KHz
Frame rate : 46.875 FPS (1024 spf)
Compression mode : Lossy
Stream size : 167 MiB (1%)
Source stream size : 167 MiB (1%)
Language : English
Encoded date : UTC 2015-11-24 02:34:58
Tagged date : UTC 2015-11-24 02:34:58
Redwood.National.and.State.Parks.Episode.1.2015.2160p.WEB-DL.Eng.ULTRAHDCLUB.mp4.jpg Redwood.National.and.State.Parks.Episode.1.2015.2160p.WEB-DL.Eng.ULTRAHDCLUB.mp4.jpg Redwood.National.and.State.Parks.Episode.1.2015.2160p.WEB-DL.Eng.ULTRAHDCLUB.mp4.jpg Redwood.National.and.State.Parks.Episode.1.2015.2160p.WEB-DL.Eng.ULTRAHDCLUB.mp4.jpg Redwood.National.and.State.Parks.Episode.1.2015.2160p.WEB-DL.Eng.ULTRAHDCLUB.mp4.jpg Redwood.National.and.State.Parks.Episode.1.2015.2160p.WEB-DL.Eng.ULTRAHDCLUB.mp4.jpg Redwood.National.and.State.Parks.Episode.1.2015.2160p.WEB-DL.Eng.ULTRAHDCLUB.mp4.jpg Redwood.National.and.State.Parks.Episode.1.2015.2160p.WEB-DL.Eng.ULTRAHDCLUB.mp4.jpg Redwood.National.and.State.Parks.Episode.1.2015.2160p.WEB-DL.Eng.ULTRAHDCLUB.mp4.jpg Redwood.National.and.State.Parks.Episode.1.2015.2160p.WEB-DL.Eng.ULTRAHDCLUB.mp4.jpg Redwood.National.and.State.Parks.Episode.1.2015.2160p.WEB-DL.Eng.ULTRAHDCLUB.mp4.jpg Redwood.National.and.State.Parks.Episode.1.2015.2160p.WEB-DL.Eng.ULTRAHDCLUB.mp4.jpg Redwood.National.and.State.Parks.Episode.1.2015.2160p.WEB-DL.Eng.ULTRAHDCLUB.mp4.jpg Redwood.National.and.State.Parks.Episode.1.2015.2160p.WEB-DL.Eng.ULTRAHDCLUB.mp4.jpg Redwood.National.and.State.Parks.Episode.1.2015.2160p.WEB-DL.Eng.ULTRAHDCLUB.mp4.jpg Redwood.National.and.State.Parks.Episode.1.2015.2160p.WEB-DL.Eng.ULTRAHDCLUB.mp4.jpg Redwood.National.and.State.Parks.Episode.1.2015.2160p.WEB-DL.Eng.ULTRAHDCLUB.mp4.jpg Redwood.National.and.State.Parks.Episode.1.2015.2160p.WEB-DL.Eng.ULTRAHDCLUB.mp4.jpg Redwood.National.and.State.Parks.Episode.1.2015.2160p.WEB-DL.Eng.ULTRAHDCLUB.mp4.jpg Redwood.National.and.State.Parks.Episode.1.2015.2160p.WEB-DL.Eng.ULTRAHDCLUB.mp4.jpg Redwood.National.and.State.Parks.Episode.1.2015.2160p.WEB-DL.Eng.ULTRAHDCLUB.mp4.jpg
建议使用极速迅雷来高速下载!最高峰值12MB

BT种子文件下载
游客,如果您要查看本帖隐藏内容请回复



2016-7-26 13:43:03
步入丛林,让人感受来自大自然的气息
TV应用下载
2016-7-28 10:53:46
步入丛林,让人感受来自大自然的气息
2016-7-23 07:03:15
支持楼主,4K123有你更精彩!
2016-7-23 07:06:14
看看还有没有可以下的
2016-7-23 07:13:02
记录片是我的最爱,谢谢楼主分享!
2016-7-23 07:35:23
支持楼主,4K123有你更精彩!
2016-7-23 07:39:23
支持楼主,4K123有你更精彩!
2016-7-23 07:46:17
谢谢分享
2016-7-23 07:46:37
美丽绿色,耀眼超清
2016-7-23 08:13:34
谢谢楼主分享
2016-7-23 08:22:42
谢谢发布分享!
您需要登录后才可以回帖 登录 | 注册
当贝