找回密码
 注册

QQ登录

只需一步,快速开始

[4K高清短片]中国万里长城 2016[2160P/MP4/580MB]

3707
回复
155965
查看
  [复制链接]
来源:4K电影预告与短片 2016-8-11 08:05:20 |阅读模式
[4K高清短片]中国万里长城 2016[2160P/MP4/580MB]
The Great Wall of China in 4k - DJI Phantom 4.mp4_20160811_063112.793.jpg The Great Wall of China in 4k - DJI Phantom 4.mp4_20160811_063123.600.jpg The Great Wall of China in 4k - DJI Phantom 4.mp4_20160811_063137.888.jpg The Great Wall of China in 4k - DJI Phantom 4.mp4_20160811_063255.744.jpg The Great Wall of China in 4k - DJI Phantom 4.mp4_20160811_063339.865.jpg The Great Wall of China in 4k - DJI Phantom 4.mp4_20160811_063406.585.jpg The Great Wall of China in 4k - DJI Phantom 4.mp4_20160811_063518.992.jpg The Great Wall of China in 4k - DJI Phantom 4.mp4_20160811_063632.392.jpg The Great Wall of China in 4k - DJI Phantom 4.mp4_20160811_063651.631.jpg The Great Wall of China in 4k - DJI Phantom 4.mp4_20160811_063800.615.jpg The Great Wall of China in 4k - DJI Phantom 4.mp4_20160811_063903.447.jpg

General
Complete name : The Great Wall of China in 4k.mp4
Format : MPEG-4
Format profile : Base Media
Codec ID : dash (isom/iso2/avc1/mp41)
File size : 581 MiB
Duration : 5 min
Overall bit rate : 14.3 Mbps
Writing application : Lavf56.25.101

Video
ID : 1
Format : AVC
Format/Info : Advanced Video Codec
Format profile : High@L5.1
Format settings, CABAC : No
Format settings, ReFrames : 2 frames
Codec ID : avc1
Codec ID/Info : Advanced Video Coding
Duration : 5 min
Bit rate : 14.2 Mbps
Width : 3840 pixels
Height : 2160 pixels
Display aspect ratio : 16:9
Frame rate mode : Variable
Frame rate : 23.976 (24000/1001) FPS
Minimum frame rate : 23.974 FPS
Maximum frame rate : 23.981 FPS
Color space : YUV
Chroma subsampling : 4:2:0
Bit depth : 8 bits
Scan type : Progressive
Bits/(Pixel*Frame) : 0.071
Stream size : 575 MiB (99%)
Color range : Limited
Color primaries : BT.709
Transfer characteristics : BT.709
Matrix coefficients : BT.709

Audio
ID : 2
Format : AAC
Format/Info : Advanced Audio Codec
Mode extension : LC
Codec ID : 40
Duration : 5 min
Bit rate mode : Constant
Bit rate : 126 kbps  
Channel(s) : 2 channels
Channel positions : Front: L R
Sampling rate : 44.1 KHz
Frame rate : 43.066 FPS (1024 spf)
Compression mode : Lossy
Stream size : 5.10 MiB (1%)
Default : Yes
Altternate group : 1

百度云盘
游客,如果您要查看本帖隐藏内容请回复


TV应用下载
2016-8-11 08:11:37
[4K电影] [4K高清短片]中国万里长城 2016支持楼主,4K123有你更精彩!
TV应用下载
2016-8-11 08:11:42
支持楼主,4K123有你更精彩!
2016-8-11 08:32:29
看起来好像不错的样子
2016-8-11 08:34:12
新手前来学习4K
2016-8-11 08:36:20
支持楼主,4K123有你更精彩!
2016-8-11 08:37:57
多谢楼主分享
2016-8-11 08:43:02
漂亮,可惜太短了!!!
2016-8-11 08:55:45
顶顶顶顶顶顶顶顶顶顶
2016-8-11 09:07:47
支持楼主,4K123有你更精彩!
您需要登录后才可以回帖 登录 | 注册