找回密码
 注册

QQ登录

只需一步,快速开始

[4K高清短片]佛罗里达州迈阿密海滩 2016[2160P/MP4/1.88GB]

1828
回复
199494
查看
[复制链接]
来源:4K电影预告与短片 2016-8-12 17:16:37 |阅读模式
[4K高清短片]佛罗里达州迈阿密海滩 2016[2160P/MP4/1.88GB]
MIAMI BEACH, Florida  - Aerials 4K Drone (UHD 2160p).mp4_20160812_160159.476.jpg MIAMI BEACH, Florida  - Aerials 4K Drone (UHD 2160p).mp4_20160812_160435.700.jpg MIAMI BEACH, Florida  - Aerials 4K Drone (UHD 2160p).mp4_20160812_160523.020.jpg MIAMI BEACH, Florida  - Aerials 4K Drone (UHD 2160p).mp4_20160812_160727.180.jpg MIAMI BEACH, Florida  - Aerials 4K Drone (UHD 2160p).mp4_20160812_161122.014.jpg MIAMI BEACH, Florida  - Aerials 4K Drone (UHD 2160p).mp4_20160812_161144.677.jpg MIAMI BEACH, Florida  - Aerials 4K Drone (UHD 2160p).mp4_20160812_161321.101.jpg MIAMI BEACH, Florida  - Aerials 4K Drone (UHD 2160p).mp4_20160812_161800.718.jpg MIAMI BEACH, Florida  - Aerials 4K Drone (UHD 2160p).mp4_20160812_162251.181.jpg MIAMI BEACH, Florida  - Aerials 4K Drone (UHD 2160p).mp4_20160812_162345.806.jpg MIAMI BEACH, Florida  - Aerials 4K Drone (UHD 2160p).mp4_20160812_162405.454.jpg

General
Complete name : MIAMI BEACH, Florida  - Aerials 4K Drone (UHD 2160p).mp4
Format : MPEG-4
Format profile : Base Media
Codec ID : dash (isom/iso2/avc1/mp41)
File size : 1.88 GiB
Duration : 11 min
Overall bit rate : 22.9 Mbps
Writing application : Lavf56.25.101

Video
ID : 1
Format : AVC
Format/Info : Advanced Video Codec
Format profile : High@L5.1
Format settings, CABAC : No
Format settings, ReFrames : 2 frames
Codec ID : avc1
Codec ID/Info : Advanced Video Coding
Duration : 11 min
Bit rate : 22.8 Mbps
Width : 3840 pixels
Height : 2160 pixels
Display aspect ratio : 16:9
Frame rate mode : Constant
Frame rate : 29.970 (30000/1001) FPS
Color space : YUV
Chroma subsampling : 4:2:0
Bit depth : 8 bits
Scan type : Progressive
Bits/(Pixel*Frame) : 0.092
Stream size : 1.87 GiB (99%)
Color range : Limited
Color primaries : BT.709
Transfer characteristics : BT.709
Matrix coefficients : BT.709

Audio
ID : 2
Format : AAC
Format/Info : Advanced Audio Codec
Mode extension : LC
Codec ID : 40
Duration : 11 min
Bit rate mode : Constant
Bit rate : 126 kbps  
Channel(s) : 2 channels
Channel positions : Front: L R
Sampling rate : 44.1 KHz
Frame rate : 43.066 FPS (1024 spf)
Compression mode : Lossy
Stream size : 10.5 MiB (1%)
Default : Yes
Altternate group : 1

百度云盘
游客,如果您要查看本帖隐藏内容请回复



2016-8-12 17:44:46
xxxxxxxxxxxxxxxxxxxxxxx
TV应用下载
_scorpio 该用户已被删除
2016-8-12 18:07:58
提示: 作者被禁止或删除 内容自动屏蔽
_scorpio 该用户已被删除
2016-8-12 18:08:16
提示: 作者被禁止或删除 内容自动屏蔽
2016-8-12 18:15:20
HD1,WL1SS1.
2016-8-12 18:22:25
支持楼主,4K123有你更精彩!
2016-8-12 18:30:33
多谢楼主分享
2016-8-12 18:37:40
顶!!!!!!!!!!!!!!
2016-8-12 18:46:34
又是涨姿势了
2016-8-12 18:49:35
支持楼主,4K123有你更精彩!
您需要登录后才可以回帖 登录 | 注册
当贝