找回密码
 注册

QQ登录

只需一步,快速开始

[4K IMAX 纪录片] 珊瑚礁历险记 Coral Reef Adventure 2003 [2160P/MKV/9.85GB]

4895
回复
433067
查看
  [复制链接]
来源:4K视频下载 2016-8-29 02:36:21 |阅读模式
[4K IMAX 纪录片] 珊瑚礁历险记 Coral Reef Adventure 2003 [2160P/MKV/9.85GB]
IMAX Coral Reef Adventure 2003.jpg
译  名:珊瑚礁历险记

片  名:Coral Reef Adventure

年  代:2003

国  家:美国

类  别:纪录片 / 短片

语  言:英语

音        频:AC-3 2.0

视频尺寸:3840 x 2160

文件大小:9.85 GiB

上映日期:2003-02-14

IMDb评分:7.0/10 from 448 users

IMDb链接:http://www.imdb.com/title/tt0270291/

片  长:45 分钟

导  演:Greg MacGilliVRay

编       剧:Osha Gray Davidson

                   Stephen Judson

主  演:Liam Neeson  连姆·尼森 (旁述)

                   Howard Hall...Herself

                   Michele Hall...Himself
                  
                   Jean-Michel Cousteau...Himself

                   Rusi Vulakoro...Himself

                   Richard Pyle...Himself

                   Tracey Medway...Herself

                   Maria Joao Rodriguez...Herself

                   Rob Barrel...Himself

                   Cat Holloway...Himself

简介:

「珊瑚礁历险记」是由海洋探险家与水下摄影师Howard Hall和Michele Hall,通过在南太平洋海域10个月的艰辛拍摄制作完成的。记录片所展现的是世界上面积最大、最壮观,同时也是最危险的珊瑚礁群。他们的探险旅程从澳大利亚的大栅栏礁(Great Barrier Reef)开始,一直到斐济的帝王岛,以及神秘的Rangiroa环礁。两名摄影师与知名的海洋探险家Jean-Michel Cousteau以及研究深海礁科学家Richard Pyle,一齐将这一自然界的壮观景象,清晰有逻辑的介绍与呈现给观众。

Take a once in a lifetime journey across the South Pacific for a spectacular IMAX adventure. Joy, ecstasy, a spiritual high: these words describe the exhilaration of diving a pristine coral reef, and ocean explorers Howard and Michele Hall bring their love of the ocean into action. With Jean-Michael Cousteau, deep reef scientist Richard Pyle and Fijian diver Rusi Vulakoro, they explore and capture on film the dazzling underwater world of coral reefs, magical places here on Earth. This tropical excursion through the South Pacific will surprise and delight you as you fall in love with the reefs, and your heart will ache at the tragic, irretrievable loss of these fragile worlds.

General
Unique ID : 233679517623359448030418600018344977056 (0xAFCD09BCDD127E77B54EDA718924A2A0)
Complete name : IMAX.Coral.Reef.Adventure.2003.2160p.Amazon.WEBRip.DD2.0.x264-TrollUHD.mkv
Format : Matroska
Format version : Version 4 / Version 2
File size : 9.85 GiB
Duration : 45 min 41 s
Overall bit rate : 30.9 Mbps
Encoded date : UTC 2016-04-20 21:29:31
Writing application : mkvmerge v8.3.0 ('Over the Horizon') 64bit  
Writing library : libebml v1.3.1 + libmatroska v1.4.2

Video
ID : 1
Format : AVC
Format/Info : Advanced Video Codec
Format profile : High@L5.1
Format settings, CABAC : Yes
Format settings, ReFrames : 5 frames
Codec ID : V_MPEG4/ISO/AVC
Duration : 45 min 41 s
Bit rate : 30.2 Mbps
Width : 3840 pixels
Height : 2160 pixels
Display aspect ratio : 16:9
Frame rate mode : Constant
Frame rate : 23.976 fps (24000/1001) fps
Color space : YUV
Chroma subsampling : 4:2:0
Bit depth : 8 bits
Scan type : Progressive
Bits/(Pixel*Frame) : 0.152
Stream size : 9.65 GiB (98%)
Writing library : x264 core 148 r2638 7599210
Encoding settings : cabac=1 / ref=5 / deblock=1:-1:-1 / analyse=0x3:0x133 / me=umh / subme=10 / psy=1 /  psy_rd=1.00:0.15 / mixed_ref=1 / me_range=48 / chroma_me=1 / trellis=2 / 8x8dct=1 / cqm=0 / deadzone=21,11 / fast_pskip=1 / chroma_qp_offset=-3 / threads=1
Default : Yes
Forced : No

Audio
ID : 2
Format : AC-3
Format/Info : Audio Coding 3
Mode extension : CM (complete main)
Format settings, Endianness : Big
Codec ID : A_AC3
Duration : 45 min 41 s
Bit rate mode : Constant  
Bit rate : 640 Kbps  
Channel(s) : 2 channels
Channel positions : Front: L R
Sampling rate : 48.0 KHz
Frame rate : 31.250 FPS (1536 spf)
Compression mode : Lossy
Stream size : 209 MiB (2%)
Language : English
Default : Yes
Forced : No
IMAX.Coral.Reef.Adventure.2003.2160p.Amazon.WEBRip.DD2.0.x264-TrollUHD.mkv_20160.jpg IMAX.Coral.Reef.Adventure.2003.2160p.Amazon.WEBRip.DD2.0.x264-TrollUHD.mkv_20160.jpg IMAX.Coral.Reef.Adventure.2003.2160p.Amazon.WEBRip.DD2.0.x264-TrollUHD.mkv_20160.jpg IMAX.Coral.Reef.Adventure.2003.2160p.Amazon.WEBRip.DD2.0.x264-TrollUHD.mkv_20160.jpg IMAX.Coral.Reef.Adventure.2003.2160p.Amazon.WEBRip.DD2.0.x264-TrollUHD.mkv_20160.jpg IMAX.Coral.Reef.Adventure.2003.2160p.Amazon.WEBRip.DD2.0.x264-TrollUHD.mkv_20160.jpg IMAX.Coral.Reef.Adventure.2003.2160p.Amazon.WEBRip.DD2.0.x264-TrollUHD.mkv_20160.jpg IMAX.Coral.Reef.Adventure.2003.2160p.Amazon.WEBRip.DD2.0.x264-TrollUHD.mkv_20160.jpg IMAX.Coral.Reef.Adventure.2003.2160p.Amazon.WEBRip.DD2.0.x264-TrollUHD.mkv_20160.jpg IMAX.Coral.Reef.Adventure.2003.2160p.Amazon.WEBRip.DD2.0.x264-TrollUHD.mkv_20160.jpg IMAX.Coral.Reef.Adventure.2003.2160p.Amazon.WEBRip.DD2.0.x264-TrollUHD.mkv_20160.jpg IMAX.Coral.Reef.Adventure.2003.2160p.Amazon.WEBRip.DD2.0.x264-TrollUHD.mkv_20160.jpg IMAX.Coral.Reef.Adventure.2003.2160p.Amazon.WEBRip.DD2.0.x264-TrollUHD.mkv_20160.jpg IMAX.Coral.Reef.Adventure.2003.2160p.Amazon.WEBRip.DD2.0.x264-TrollUHD.mkv_20160.jpg IMAX.Coral.Reef.Adventure.2003.2160p.Amazon.WEBRip.DD2.0.x264-TrollUHD.mkv_20160.jpg IMAX.Coral.Reef.Adventure.2003.2160p.Amazon.WEBRip.DD2.0.x264-TrollUHD.mkv_20160.jpg IMAX.Coral.Reef.Adventure.2003.2160p.Amazon.WEBRip.DD2.0.x264-TrollUHD.mkv_20160.jpg IMAX.Coral.Reef.Adventure.2003.2160p.Amazon.WEBRip.DD2.0.x264-TrollUHD.mkv_20160.jpg
建议使用极速迅雷来高速下载!最高峰值12MB

BT种子文件下载

游客,如果您要查看本帖隐藏内容请回复


2016-8-29 04:16:37
感谢楼主分享!
TV应用下载
2016-8-29 04:33:38
速迅雷来高速下载!最高峰值12MB
2016-8-29 04:47:46
支持楼主,4K123有你更精彩!
2016-8-29 04:57:57
支持楼主,4K123有你更精彩!
2016-8-29 05:26:35
支持楼主,4K123有你更精彩!
2016-8-29 05:40:43
谢谢提供。
2016-8-29 05:42:18
支持楼主,4K123有你更精彩!
2016-8-29 05:45:36
想看此片
2016-8-29 05:45:43
谢谢分享
您需要登录后才可以回帖 登录 | 注册
当贝