找回密码
 注册

QQ登录

只需一步,快速开始

[4K高清纪录片]巴西 2015[2160P/MP4/3.74GB]

3133
回复
286679
查看
  [复制链接]
来源:4K视频下载 2016-9-14 19:56:34 |阅读模式
[4K高清纪录片]巴西 2015[2160P/MP4/3.74GB] FunBox4K.Softcity.Brazil.2015.2160p.UHDTV.AAC2.0.AVC-ULTRAHDCLUB.mp4_20160913_16.jpg FunBox4K.Softcity.Brazil.2015.2160p.UHDTV.AAC2.0.AVC-ULTRAHDCLUB.mp4_20160913_16.jpg FunBox4K.Softcity.Brazil.2015.2160p.UHDTV.AAC2.0.AVC-ULTRAHDCLUB.mp4_20160913_16.jpg FunBox4K.Softcity.Brazil.2015.2160p.UHDTV.AAC2.0.AVC-ULTRAHDCLUB.mp4_20160913_16.jpg FunBox4K.Softcity.Brazil.2015.2160p.UHDTV.AAC2.0.AVC-ULTRAHDCLUB.mp4_20160913_16.jpg FunBox4K.Softcity.Brazil.2015.2160p.UHDTV.AAC2.0.AVC-ULTRAHDCLUB.mp4_20160913_16.jpg FunBox4K.Softcity.Brazil.2015.2160p.UHDTV.AAC2.0.AVC-ULTRAHDCLUB.mp4_20160913_16.jpg FunBox4K.Softcity.Brazil.2015.2160p.UHDTV.AAC2.0.AVC-ULTRAHDCLUB.mp4_20160913_16.jpg FunBox4K.Softcity.Brazil.2015.2160p.UHDTV.AAC2.0.AVC-ULTRAHDCLUB.mp4_20160913_16.jpg FunBox4K.Softcity.Brazil.2015.2160p.UHDTV.AAC2.0.AVC-ULTRAHDCLUB.mp4_20160913_16.jpg FunBox4K.Softcity.Brazil.2015.2160p.UHDTV.AAC2.0.AVC-ULTRAHDCLUB.mp4_20160913_16.jpg FunBox4K.Softcity.Brazil.2015.2160p.UHDTV.AAC2.0.AVC-ULTRAHDCLUB.mp4_20160913_16.jpg FunBox4K.Softcity.Brazil.2015.2160p.UHDTV.AAC2.0.AVC-ULTRAHDCLUB.mp4_20160913_16.jpg FunBox4K.Softcity.Brazil.2015.2160p.UHDTV.AAC2.0.AVC-ULTRAHDCLUB.mp4_20160913_16.jpg FunBox4K.Softcity.Brazil.2015.2160p.UHDTV.AAC2.0.AVC-ULTRAHDCLUB.mp4_20160913_16.jpg FunBox4K.Softcity.Brazil.2015.2160p.UHDTV.AAC2.0.AVC-ULTRAHDCLUB.mp4_20160913_16.jpg FunBox4K.Softcity.Brazil.2015.2160p.UHDTV.AAC2.0.AVC-ULTRAHDCLUB.mp4_20160913_16.jpg FunBox4K.Softcity.Brazil.2015.2160p.UHDTV.AAC2.0.AVC-ULTRAHDCLUB.mp4_20160913_16.jpg

General
Complete name : FunBox4K.Softcity.Brazil.2015.2160p.UHDTV.AAC2.0.AVC-ULTRAHDCLUB.mp4
Format : MPEG-4
Format profile : Base Media
Codec ID : isom (isom/iso2/avc1/mp41)
File size : 3.74 GiB
Duration : 30 min
Overall bit rate : 17.8 Mbps
Writing application : Lavf56.25.101

Video
ID : 1
Format : AVC
Format/Info : Advanced Video Codec
Format profile : High@L5.1
Format settings, CABAC : No
Format settings, ReFrames : 2 frames
Codec ID : avc1
Codec ID/Info : Advanced Video Coding
Duration : 30 min
Bit rate : 17.7 Mbps
Width : 3840 pixels
Height : 2160 pixels
Display aspect ratio : 16:9
Frame rate mode : Constant
Frame rate : 25.000 FPS
Color space : YUV
Chroma subsampling : 4:2:0
Bit depth : 8 bits
Scan type : Progressive
Bits/(Pixel*Frame) : 0.085
Stream size : 3.72 GiB (99%)

Audio
ID : 2
Format : AAC
Format/Info : Advanced Audio Codec
Mode extension : LC
Codec ID : 40
Duration : 30 min
Bit rate mode : Constant
Bit rate : 126 kbps  
Channel(s) : 2 channels
Channel positions : Front: L R
Sampling rate : 44.1 KHz
Frame rate : 43.066 FPS (1024 spf)
Compression mode : Lossy
Stream size : 27.1 MiB (1%)
Default : Yes
Altternate group : 1
建议使用极速迅雷来高速下载!最高峰值11MB

BT种子文件下载
游客,如果您要查看本帖隐藏内容请回复


2016-9-22 18:56:52
趁着里约奥运的余温,好好欣赏一下巴西!
TV应用下载
2016-9-14 19:58:44
支持楼主,4K123有你更精彩!
2016-9-14 20:07:28
支持楼主,4K123有你更精彩!
2016-9-14 20:36:16
小手一抖,资源拿走。不要想念我小伙们
2016-9-14 20:40:15
支持楼主,4K123有你更精彩!
2016-9-14 20:41:50
学习,卡卡卡
2016-9-14 20:42:13
激情欣赏 [4K高清纪录片]巴西 2015[2160P/MP4/3.74GB]!!!!
2016-9-14 20:48:17
果断马克mark
2016-9-14 20:51:03
小手一抖,资源拿走。不要想念我小伙们
2016-9-14 21:04:41
[4K高清纪录片]巴西 2015[2160P/MP4/3.74GB] [修改]
您需要登录后才可以回帖 登录 | 注册
当贝