找回密码
 注册

QQ登录

只需一步,快速开始

[4K短片] IMAX 映前秀 2015 (AC-3 5.1环绕声)[2160P/MKV/124MB]

2308
回复
311183
查看
[复制链接]
来源:4K视频下载 2016-9-26 06:33:09 |阅读模式
[4K短片] IMAX 映前秀 2015 (AC-3 5.1环绕声)[2160P/MKV/124MB]
IMAX-Pre-Show.jpg

General # 1
Unique ID : 211188005979549865686569590282716705055 (0x9EE154991A00877F98F8D3F8AA6FF11F)
Complete name : IMAX_Pre-Show_(Never Compromise)_2015_4K_UHD_(AC-3 5.1).mkv
Format : Matroska
Format version : Version 4 / Version 2
File size : 124 MiB
Duration : 1 min
Overall bit rate : 14.7 Mbps
Encoded date : UTC 2016-02-08 23:38:58
Writing application : mkvmerge v8.3.0 ('Over the Horizon') 64bit
Writing library : libebml v1.3.1 + libmatroska v1.4.2

Video # 1
ID : 1
Format : AVC
Format/Info : Advanced Video Codec
Format profile : High@L5.1
Format settings, CABAC : No
Format settings, ReFrames : 2 frames
Codec ID : V_MPEG4/ISO/AVC
Duration : 1 min
Bit rate : 14.1 Mbps
Width : 3840 pixels
Height : 2160 pixels
Display aspect ratio : 16:9
Frame rate mode : Constant
Frame rate : 24.000 FPS
Color space : YUV
Chroma subsampling : 4:2:0
Bit depth : 8 bits
Scan type : Progressive
Bits/(Pixel*Frame) : 0.071
Stream size : 119 MiB (96%)
Default : Yes
Forced : No

Audio # 1
ID : 2
Format : AC-3
Format/Info : Audio Coding 3
Mode extension : CM (complete main)
Format settings, Endianness : Big
Codec ID : A_AC3
Duration : 1 min
Bit rate mode : Constant  
Bit rate : 640 Kbps  
Channel(s) : 6 channels
Channel positions : Front: L C R, Side: L R, LFE
Sampling rate : 48.0 KHz
Frame rate : 31.250 FPS (1536 spf)
Compression mode : Lossy
Stream size : 5.41 MiB (4%)
Language : English
Default : Yes
Forced : No
IMAX Pre-Show.photo.1.jpg IMAX Pre-Show.photo.2.jpg IMAX Pre-Show.photo.3.jpg IMAX Pre-Show.photo.4.jpg IMAX Pre-Show.photo.5.jpg IMAX Pre-Show.photo.6.jpg IMAX Pre-Show.photo.7.jpg IMAX Pre-Show.photo.8.jpg IMAX Pre-Show.photo.9.jpg
MKV百度云盘
游客,如果您要查看本帖隐藏内容请回复



2016-9-26 07:56:51
回复的你大概明白v
TV应用下载
2016-9-26 07:58:35
又是涨姿势了
2016-9-26 08:12:08
支持楼主,4K123有你更精彩!
2016-9-26 08:12:33
看起来好像不错的样子
2016-9-26 08:14:12
很科幻的感觉。
2016-9-26 08:26:05

很科幻的感觉
2016-9-26 08:52:51
看起来好像不错的样子
2016-9-26 09:03:21
[4K短片] IMAX 映前秀 2015 (AC-3 5.1环绕声)[2160P/MKV/124MB] [修改
2016-9-26 09:10:31
我家4K电视又可以炫机了
您需要登录后才可以回帖 登录 | 注册
当贝