找回密码
 注册

QQ登录

只需一步,快速开始

(50.5GB)独立日:卷土重来2 Independence Day: Resurgence (2016) 2160p 4K Ultr...

4599
回复
664025
查看
  [复制链接]
来源:4K视频下载 2017-1-17 13:49:27 |阅读模式
Independence Day: Resurgence (2016) 2160p 4K UltraHD BluRay (x265 HEVC 10bit) 2CH AC3

Format                                   : Matroska
Format version                           : Version 2
File size                                : 50.5 GiB
Duration                                 : 2h 0mn
Overall bit rate                         : 60.2 Mbps
Encoded date                             : UTC 2016-11-25T00:11:38Z
Writing application                      : HandBrake 20160604111422-9206444-master 2016060501
Writing library                          : Lavf56.1.0 / Lavf56.1.0

Video
ID                                       : 1
Format                                   : HEVC
Format/Info                              : High Efficiency Video Coding
Format profile                           : Main 10@L6.1@Main
Codec ID                                 : V_MPEGH/ISO/HEVC
Duration                                 : 2h 0mn
Bit rate                                 : 58.4 Mbps
Width                                    : 3 840 pixels
Height                                   : 2 160 pixels
Display aspect ratio                     : 16:9
Frame rate mode                          : Constant
Frame rate                               : 23.976 (24000/1001) fps
Color space                              : YUV
Chroma subsampling                       : 4:2:0
Bit depth                                : 10 bits
Bits/(Pixel*Frame)                       : 0.294
Stream size                              : 48.9 GiB (97%)
Writing library                          : x265 1.9+3-63308f7658c3:[Windows][GCC 5.2.0][64 bit] 10bit
Encoding settings                        : wpp / ctu=64 / min-cu-size=8 / max-tu-size=32 / tu-intra-depth=1 / tu-inter-depth=1 / me=1 / subme=2 / merange=57 / no-rect / no-amp / max-merge=2 / temporal-mvp / no-early-skip / rdpenalty=0 / no-tskip / no-tskip-fast / strong-intra-smoothing / no-lossless / no-cu-lossless / no-constrained-intra / no-fast-intra / open-gop / no-temporal-layers / interlace=0 / keyint=240 / min-keyint=24 / scenecut=40 / rc-lookahead=20 / lookahead-slices=8 / bframes=4 / bframe-bias=0 / b-adapt=2 / ref=3 / limit-refs=3 / no-limit-modes / weightp / no-weightb / aq-mode=1 / qg-size=32 / aq-strength=1.00 / cbqpoffs=0 / crqpoffs=0 / rd=3 / psy-rd=2.00 / rdoq-level=0 / psy-rdoq=0.00 / signhide / deblock / sao / no-sao-non-deblock / b-pyramid / cutree / no-intra-refresh / rc=abr / bitrate=61000 / qcomp=0.60 / qpmin=0 / qpmax=51 / qpstep=4 / ipratio=1.40 / pbratio=1.30
Default                                  : Yes
Forced                                   : No
Color range                              : Limited
Color primaries                          : BT.709
Transfer characteristics                 : BT.709
Matrix coefficients                      : BT.601

Audio
ID                                       : 2
Format                                   : AC-3
Format/Info                              : Audio Coding 3
Mode extension                           : CM (complete main)
Format settings, Endianness              : Big
Codec ID                                 : A_AC3
Duration                                 : 2h 0mn
Bit rate mode                            : Constant
Bit rate                                 : 640 Kbps
Channel(s)                               : 2 channels
Channel positions                        : Front: L R
Sampling rate                            : 48.0 KHz
Frame rate                               : 31.250 fps (1536 spf)
Compression mode                         : Lossy
Delay relative to video                  : -5ms
Stream size                              : 549 MiB (1%)
Title                                    : Stereo
Default                                  : Yes
Forced                                   : No

游客,如果您要查看本帖隐藏内容请回复

1

1

2

2

3

3

4

4

5

5
2017-1-17 13:53:45
太大了,下来看看。         

点评

不会下载啊,咋下啊?  详情 回复 发表于 2020-2-23 22:15
TV应用下载
2017-1-17 14:02:09
又是涨姿势了 怎么下载呢?
2017-1-17 14:04:49
果断马克mark
2017-1-17 14:08:01
zy9163 发表于 2017-1-17 14:02
又是涨姿势了 怎么下载呢?

磁力链接:迅雷,百度云以及其他任意下载器均可,建议迅雷,亲测可用

点评

分享的片子不错  详情 回复 发表于 2019-12-23 19:06
2017-1-17 14:08:09
真是难得给力的资源啊。
2017-1-17 14:08:31
独立日:卷土重来2繁體&英文
2017-1-17 14:16:31
这好资源,必须顶一下
2017-1-17 14:21:56
多谢分享!!!
2017-1-17 14:26:10
w新手前来学习4K
您需要登录后才可以回帖 登录 | 注册
当贝