找回密码
 注册

QQ登录

只需一步,快速开始

[索尼4K演示片] 美丽的大海 (HEVC) [2160P/MKV/602MB]

5933
回复
771121
查看
  [复制链接]
来源:4K视频下载 2017-1-22 00:09:31 |阅读模式
[索尼4K演示片] 美丽的大海 (HEVC) [2160P/MKV/602MB] Sony.4K.DEMO_Beautiful.Sea_HEVC.mkv_2017_01.jpg Sony.4K.DEMO_Beautiful.Sea_HEVC.mkv_2017_02.jpg Sony.4K.DEMO_Beautiful.Sea_HEVC.mkv_2017_03.jpg Sony.4K.DEMO_Beautiful.Sea_HEVC.mkv_2017_04.jpg Sony.4K.DEMO_Beautiful.Sea_HEVC.mkv_2017_05.jpg Sony.4K.DEMO_Beautiful.Sea_HEVC.mkv_2017_06.jpg Sony.4K.DEMO_Beautiful.Sea_HEVC.mkv_2017_07.jpg Sony.4K.DEMO_Beautiful.Sea_HEVC.mkv_2017_08.jpg Sony.4K.DEMO_Beautiful.Sea_HEVC.mkv_2017_09.jpg

General
Unique ID : 180220807048344995261667017876566699367 (0x879543CFCE1B05498525E277106BED67)
Complete name : Sony.4K.DEMO_Beautiful.Sea_HEVC.mkv
Format : Matroska
Format version : Version 4 / Version 2
File size : 602 MiB
Duration : 1 min 44 s
Overall bit rate : 48.5 Mbps
Encoded date : UTC 2017-01-07 02:47:11
Writing application : mkvmerge v9.6.0 ('Slave To Your Mind') 64bit
Writing library : libebml v1.3.4 + libmatroska v1.4.5
Encoding Gui : Hybrid 2016.12.23.1

Video
ID : 1
Format : HEVC
Format/Info : High Efficiency Video Coding
Format profile : Main@L5.1@High
Codec ID : V_MPEGH/ISO/HEVC
Duration : 1 min 44 s
Bit rate : 48.4 Mbps
Width : 3840 pixels
Height : 2160 pixels
Display aspect ratio : 16:9
Frame rate mode : Constant
Frame rate : 29.970 (30000/1001) FPS
Color space : YUV
Chroma subsampling : 4:2:0
Bit depth : 8 bits
Bits/(Pixel*Frame) : 0.195
Stream size : 601 MiB (100%)
Writing library : x265 2.1+74-e5759d587ae2:[Windows][GCC 6.2.0][64 bit] 8bit+10bit+12bit
Encoding settings : cpuid=1173503 / frame-threads=3 / numa-pools=8 / wpp / no-pmode / no-pme / no-psnr / ssim / log-level=2 / input-csp=1 / input-res=3840x2160 / interlace=0 / total-frames=0 / level-idc=51 / high-tier=1 / uhd-bd=0 / ref=5 / no-allow-non-conformance / repeat-headers / annexb / aud / hrd / info / hash=0 / no-temporal-layers / open-gop / min-keyint=23 / keyint=250 / bframes=8 / b-adapt=2 / b-pyramid / bframe-bias=0 / rc-lookahead=60 / lookahead-slices=1 / scenecut=40 / no-intra-refresh / ctu=32 / min-cu-size=8 / no-rect / no-amp / max-tu-size=32 / tu-inter-depth=2 / tu-intra-depth=2 / limit-tu=0 / rdoq-level=1 / signhide / no-tskip / nr-intra=0 / nr-inter=0 / no-constrained-intra / no-strong-intra-smoothing / max-merge=2 / limit-refs=3 / no-limit-modes / me=2 / subme=5 / merange=60 / temporal-mvp / weightp / weightb / no-analyze-src-pics / deblock=-3:-3 / no-sao / no-sao-non-deblock / rd=4 / no-early-skip / no-rskip / no-fast-intra / no-tskip-fast / no-cu-lossless / no-b-intra / rdpenalty=0 / psy-rd=2.00 / psy-rdoq=3.00 / no-rd-refine / analysis-mode=0 / no-lossless / cbqpoffs=0 / crqpoffs=0 / rc=crf / crf=22.0 / qcomp=0.80 / qpstep=6 / stats-write=0 / stats-read=0 / vbv-maxrate=160000 / vbv-bufsize=160000 / vbv-init=0.9 / crf-max=0.0 / crf-min=0.0 / ipratio=1.50 / pbratio=1.10 / aq-mode=1 / aq-strength=0.50 / no-cutree / zone-count=0 / no-strict-cbr / qg-size=32 / no-rc-grain / qpmax=69 / qpmin=0 / sar=1 / overscan=0 / videoformat=5 / range=0 / colorprim=2 / transfer=2 / colormatrix=1 / chromaloc=0 / display-window=0 / max-cll=0,0 / min-luma=0 / max-luma=255 / log2-max-poc-lsb=8 / vui-timing-info / vui-hrd-info / slices=1 / opt-qp-pps / opt-ref-list-length-pps / no-multi-pass-opt-rps / scenecut-bias=0.05
Language : English
Default : Yes
Forced : Yes
Color range : Limited
Matrix coefficients : BT.709

Audio
ID : 2
Format : AAC
Format/Info : Advanced Audio Codec
Format profile : LC
Codec ID : A_AAC
Duration : 1 min 44 s
Bit rate : 128 kbps
Channel(s) : 2 channels
Channel positions : Front: L R
Sampling rate : 48.0 kHz
Frame rate : 46.875 FPS (1024 spf)
Compression mode : Lossy
Stream size : 1.59 MiB (0%)
Language : English
Default : Yes
Forced : No
播放器 : Potplaye/MPC-HC
建议在大屏幕电视上观看才能体验最佳效果

MKV百度云盘

游客,如果您要查看本帖隐藏内容请回复



2017-1-22 00:17:27
很好,下载看看,谢谢
TV应用下载
2017-1-22 00:22:34
很好,下载看看,谢谢
2017-1-22 00:24:27
小手一抖,资源拿走。不要想念我小伙们
2017-1-22 00:39:23
感谢楼主分享
2017-1-22 00:50:27
美丽的大海 (HEVC) [2160P/MKV/602MB]
2017-1-22 01:12:11
支持楼主,4K123有你更精彩!
2017-1-22 01:17:58
很好,下载看看,谢谢
2017-1-22 01:23:49
下载看看,谢谢
2017-1-22 01:48:22
感谢楼主 感谢楼主分享!!
您需要登录后才可以回帖 登录 | 注册
当贝