找回密码
 注册

QQ登录

只需一步,快速开始

[4K真人秀]大世界之旅 第一季•第十二集 2017(高码率)[2160P/MKV/21.9GB]

479
回复
77939
查看
[复制链接]
来源:4K视频下载 2017-1-29 08:36:30 |阅读模式
本帖最后由 klpoij89 于 2017-2-6 22:50 编辑

[4K真人秀]大世界之旅 第一季第十二集 2017(高码率)[2160P/MKV/21.9GB]
The-Grand-Tour-tv-show.jpg
译  名:大世界之旅

片  名:The Grand Tour

年  代:2017

国  家:英国

类  别:真人秀 / 喜剧

语  言:英语

字       幕:英文

音       频:AC-3 5.1

视频尺寸:3840 x 2160

文件大小:21.9 GiB

IMDb评分:8.8/10 from 215 users

IMDb链接:http://www.imdb.com/title/tt6068854/?ref_=tt_ep_nx

片  长:62 分钟

导  演:Phil Churchward 菲尔·查沃德

                 Kit Lynch Robinson 凯特·林奇·罗宾森

主  演:Jeremy Clarkson 杰里米·克拉克森

                 Richard Hammond 理查德·哈蒙德

                 James May 詹姆斯·梅

                 Mike Skinner 麦克·斯金纳


简介:

The Grand Tour tent is once again on the edge of Loch Ness, Scotland thanks to an amazing discovery made by the hosts since the last show. In this programme, Jeremy Clarkson, Richard Hammond and James May test out the Jaguar F-Pace, the Bentley Bentayga and the Range Rover Autobiography with a road trip around central Europe taking in some of the most grown-up and not at all childishly rude place names the region has to offer. Also in this episode, Jeremy kills a few preconceptions as he takes to the Eboladrome in the Lexus GS F and legendary movie director Tim Burton crosses the Loch to try Celebrity Brain Crash. Plus, as launch control becomes increasingly common on high performance cars, the hosts examine the point of this feature with a short film presentation.

General
Unique ID : 196129223734840044103584258489766397518 (0x938D1D4F9CB6CD4E91BF15FC1044464E)
Complete name : The.Grand.Tour.S01E12.2160p.AMZN.WEBRip.DD5.1.x264-TrollUHD.mkv
Format : Matroska
Format version : Version 4 / Version 2
File size : 21.9 GiB
Duration : 1 h 2 min
Overall bit rate : 50.1 Mbps
Encoded date : UTC 2017-01-27 08:09:04
Writing application : mkvmerge v8.3.0 ('Over the Horizon') 64bit
Writing library : libebml v1.3.1 + libmatroska v1.4.2

Video
ID : 1
Format : AVC
Format/Info : Advanced Video Codec
Format profile : High@L5.1
Format settings, CABAC : Yes
Format settings, ReFrames : 5 frames
Codec ID : V_MPEG4/ISO/AVC
Duration : 1 h 2 min
Bit rate : 49.5 Mbps
Width : 3840 pixels
Height : 2160 pixels
Display aspect ratio : 16:9
Frame rate mode : Constant
Frame rate : 23.976 (24000/1001) FPS
Color space : YUV
Chroma subsampling : 4:2:0
Bit depth : 8 bits
Scan type : Progressive
Bits/(Pixel*Frame) : 0.249
Stream size : 21.6 GiB (99%)
Writing library : x264 core 148 r2638 7599210
Encoding settings : cabac=1 / ref=5 / deblock=1:-3:-3 / analyse=0x3:0x133 / me=umh / subme=10 / psy=1 / psy_rd=1.00:0.00 / mixed_ref=1 / me_range=48 / chroma_me=1 / trellis=2 / 8x8dct=1 / cqm=0 / deadzone=21,11 / fast_pskip=1 / chroma_qp_offset=-2 / threads=48 / lookahead_threads=8 / sliced_threads=0 / nr=0 / decimate=0 / interlaced=0 / bluray_compat=0 / constrained_intra=0 / bframes=8 / b_pyramid=2 / b_adapt=2 / b_bias=0 / direct=3 / weightb=1 / open_gop=0 / weightp=2 / keyint=240 / keyint_min=23 / scenecut=40 / intra_refresh=0 / rc_lookahead=60 / rc=crf / mbtree=1 / crf=17.0 / qcomp=0.70 / qpmin=0 / qpmax=69 / qpstep=4 / vbv_maxrate=300000 / vbv_bufsize=300000 / crf_max=0.0 / nal_hrd=none / filler=0 / ip_ratio=1.40 / aq=1:0.70
Default : Yes
Forced : No

Audio
ID : 2
Format : E-AC-3
Format/Info : Enhanced Audio Coding 3
Format settings, Endianness : Big
Codec ID : A_EAC3
Duration : 1 h 2 min
Bit rate mode : Constant
Bit rate : 640 kbps
Channel(s) : 6 channels
Channel positions : Front: L C R, Side: L R, LFE
Sampling rate : 48.0 kHz
Frame rate : 187.500 FPS (256 spf)
Compression mode : Lossy
Stream size : 287 MiB (1%)
Language : English
Default : Yes
Forced : No

Text
ID : 3
Format : UTF-8
Codec ID : S_TEXT/UTF8
Codec ID/Info : UTF-8 Plain Text
Duration : 1 h 1 min
Bit rate : 95 bps
Count of elements : 1143
Stream size : 42.5 KiB (0%)
Language : English
Default : Yes
Forced : No
The.Grand.Tour.S01E12.2160p.AMZN.WEBRip.DD5.1.x264-TrollUHD.mkv_2017_01.jpg The.Grand.Tour.S01E12.2160p.AMZN.WEBRip.DD5.1.x264-TrollUHD.mkv_2017_02.jpg The.Grand.Tour.S01E12.2160p.AMZN.WEBRip.DD5.1.x264-TrollUHD.mkv_2017_04.jpg The.Grand.Tour.S01E12.2160p.AMZN.WEBRip.DD5.1.x264-TrollUHD.mkv_2017_05.jpg The.Grand.Tour.S01E12.2160p.AMZN.WEBRip.DD5.1.x264-TrollUHD.mkv_2017_06.jpg The.Grand.Tour.S01E12.2160p.AMZN.WEBRip.DD5.1.x264-TrollUHD.mkv_2017_07.jpg The.Grand.Tour.S01E12.2160p.AMZN.WEBRip.DD5.1.x264-TrollUHD.mkv_2017_08.jpg The.Grand.Tour.S01E12.2160p.AMZN.WEBRip.DD5.1.x264-TrollUHD.mkv_2017_09.jpg The.Grand.Tour.S01E12.2160p.AMZN.WEBRip.DD5.1.x264-TrollUHD.mkv_2017_10.jpg The.Grand.Tour.S01E12.2160p.AMZN.WEBRip.DD5.1.x264-TrollUHD.mkv_2017_11.jpg The.Grand.Tour.S01E12.2160p.AMZN.WEBRip.DD5.1.x264-TrollUHD.mkv_2017_12.jpg The.Grand.Tour.S01E12.2160p.AMZN.WEBRip.DD5.1.x264-TrollUHD.mkv_2017_13.jpg The.Grand.Tour.S01E12.2160p.AMZN.WEBRip.DD5.1.x264-TrollUHD.mkv_2017_14.jpg The.Grand.Tour.S01E12.2160p.AMZN.WEBRip.DD5.1.x264-TrollUHD.mkv_2017_15.jpg The.Grand.Tour.S01E12.2160p.AMZN.WEBRip.DD5.1.x264-TrollUHD.mkv_2017_16.jpg The.Grand.Tour.S01E12.2160p.AMZN.WEBRip.DD5.1.x264-TrollUHD.mkv_2017_17.jpg The.Grand.Tour.S01E12.2160p.AMZN.WEBRip.DD5.1.x264-TrollUHD.mkv_2017_18.jpg The.Grand.Tour.S01E12.2160p.AMZN.WEBRip.DD5.1.x264-TrollUHD.mkv_2017_19.jpg The.Grand.Tour.S01E12.2160p.AMZN.WEBRip.DD5.1.x264-TrollUHD.mkv_2017_20.jpg The.Grand.Tour.S01E12.2160p.AMZN.WEBRip.DD5.1.x264-TrollUHD.mkv_2017_21.jpg The.Grand.Tour.S01E12.2160p.AMZN.WEBRip.DD5.1.x264-TrollUHD.mkv_2017_22.jpg
建议使用
极速迅雷来高速下载!

播放器: Potplaye/MPC-HC


BT种子文件下载

游客,如果您要查看本帖隐藏内容请回复


TV应用下载
2017-1-29 08:44:05
新手前来学习4K
TV应用下载
2017-1-29 09:15:47
真是难得给力的资源啊。

点评

支持楼主,4K123有你更精  发表于 2017-2-2 16:05
2017-1-29 09:20:18
支持楼主,4K123有你更精彩!
2017-1-29 10:10:36
看起来好像不错的样子
2017-1-29 10:32:01
支持楼主,4K123有你更精彩!

点评

支持楼主,4K123有你更精  发表于 2017-2-2 16:04
2017-1-29 10:38:04
支持楼主,4K123有你更精彩!

点评

支持楼主,4K123有你更精  发表于 2017-2-2 16:04
2017-1-29 10:41:07
好%多謝版主的無私發佈分享!

点评

4K123有你更精  发表于 2017-2-2 16:03
2017-1-29 11:26:24
真是难得给力的资源啊。
2017-1-29 11:47:02
4K123有你更精彩

点评

4K123有你更精  发表于 2017-2-2 16:03
2017-1-29 12:49:59
看看怎么样啊
2017-1-29 13:17:42 来自4K123手机版
世界之RE: [4K真人秀]大世界之旅 第一季
2017-1-29 13:31:25
小手一抖,资源拿走。不要想念我小伙们
2017-1-29 13:32:56
新手前来学习4K
2017-1-29 14:49:50
支持楼主,4K123有你更精彩!
2017-1-29 15:15:33

支持楼主,4K123有你更精彩!
2017-1-29 15:29:24
感谢分享
2017-1-29 15:37:49

支持楼主,4K123有你更精彩!
2017-1-29 15:38:11
支持楼主,4K123有你更精彩!
2017-1-29 16:24:39
11111111111111111111111111111111111111111
2017-1-29 17:25:46
这纪录片就算集数很多了,谢谢版主了
2017-1-29 17:39:09
不知道我的电脑看着看不
2017-1-29 18:49:53
下下来看看,应该很不错的样子
2017-1-29 18:54:41
真的很好看啊
2017-1-29 20:02:12
真是难得给力的资源啊。
2017-1-29 20:03:16
谢谢分享
2017-1-29 20:40:15
看起来好像不错的样子
2017-1-29 20:47:44
支持楼主,4K123有你更精彩!
2017-1-29 20:55:00
新手前来学习4K
2017-1-29 21:50:54
谢谢楼主分享
2017-1-29 22:08:03
支持楼主,4K123有你更精彩!
2017-1-29 22:09:47
新手前来学习4K
2017-1-29 22:38:35
我家4K电视又可以炫机了
2017-1-29 23:00:47
看起来好像不错的样子
2017-1-29 23:58:39
支持楼主,4K123有你更精彩!
2017-1-30 00:06:51
呵呵,这一季不知道是多少集哦,再下去硬盘吃紧了。谢谢分享。
2017-1-30 00:41:27
GOOD GOOD~~~
2017-1-30 08:30:00
真是难得给力的资源啊。
2017-1-30 08:37:38
4K123有你更精彩
2017-1-30 09:50:47
这个要顶一下的
2017-1-30 09:57:24
又是涨姿势了
2017-1-30 10:56:28
支持楼主,4K123有你更精彩!
2017-1-30 14:49:21
支持楼主,4K123有你更精彩!
2017-1-30 16:19:35
绝世好文,不得不顶
2017-1-30 16:25:44
又是涨姿势了
2017-1-30 17:13:16
不错,大力支持!
2017-1-30 17:21:47
难得给力的资源啊。
2017-1-30 17:24:29
感谢分享
2017-1-30 18:21:46
支持楼主,4K123有你更精彩!
2017-1-30 18:39:40
新手前来学习4K
您需要登录后才可以回帖 登录 | 注册
当贝