找回密码
 注册

QQ登录

只需一步,快速开始

LG 4K HDR 演示片 - 杜比预告片(HEVC 10bit) [2160P/TS/298MB]

6805
回复
461529
查看
  [复制链接]
来源:4K视频下载 2017-2-5 19:53:10 |阅读模式
LG 4K HDR 演示片 - 杜比预告片(HEVC 10bit) [2160P/TS/298MB]
LG.HDR.4K.DEMO_Dolby.Trailer-OLED.ts_2017_01.jpg LG.HDR.4K.DEMO_Dolby.Trailer-OLED.ts_2017_02.jpg LG.HDR.4K.DEMO_Dolby.Trailer-OLED.ts_2017_03.jpg LG.HDR.4K.DEMO_Dolby.Trailer-OLED.ts_2017_04.jpg LG.HDR.4K.DEMO_Dolby.Trailer-OLED.ts_2017_05.jpg LG.HDR.4K.DEMO_Dolby.Trailer-OLED.ts_2017_06.jpg LG.HDR.4K.DEMO_Dolby.Trailer-OLED.ts_2017_07.jpg LG.HDR.4K.DEMO_Dolby.Trailer-OLED.ts_2017_08.jpg LG.HDR.4K.DEMO_Dolby.Trailer-OLED.ts_2017_09.jpg LG.HDR.4K.DEMO_Dolby.Trailer-OLED.ts_2017_10.jpg LG.HDR.4K.DEMO_Dolby.Trailer-OLED.ts_2017_11.jpg LG.HDR.4K.DEMO_Dolby.Trailer-OLED.ts_2017_12.jpg

General
ID : 1 (0x1)
Complete name : LG.HDR.4K.DEMO_Dolby.Trailer-OLED.ts
Format : MPEG-TS
File size : 298 MiB
Duration : 1 min 17 s
Overall bit rate mode : Constant
Overall bit rate : 32.1 Mbps

Video
ID : 33 (0x21)
Menu ID : 2 (0x2)
Format : HEVC
Format/Info : High Efficiency Video Coding
Format profile : Main 10@L5@Main
Codec ID : 36
Duration : 1 min 16 s
Bit rate : 29.7 Mbps
Width : 3840 pixels
Height : 2160 pixels
Display aspect ratio : 16:9
Frame rate : 23.976 (24000/1001) FPS
Color space : YUV
Chroma subsampling : 4:2:0
Bit depth : 10 bits
Bits/(Pixel*Frame) : 0.150
Stream size : 273 MiB (91%)

Audio
ID : 35 (0x23)
Menu ID  : 2 (0x2)
Format : E-AC-3
Format/Info : Enhanced Audio Coding 3
Format settings, Endianness : Big
Codec ID : 135
Duration : 1 min 17 s
Bit rate mode : Constant
Bit rate : 768 kbps
Channel(s) : 6 channels
Channel positions : Front: L C R, Side: L R, LFE
Sampling rate : 48.0 kHz
Frame rate : 187.500 FPS (256 spf)
Compression mode : Lossy
Delay relative to video : -948 ms
Stream size : 7.14 MiB (2%)
HDR ! So your TV has to be able to play this format !
HDR系统截图只供视频内容参考
真真的画质和色彩只有在HDR电视上观看才能体验最佳效果!
播放器 : Potplaye/MPC-HC


TS百度云盘
游客,如果您要查看本帖隐藏内容请回复


2017-2-5 19:57:15
支持楼主,4K123有你更精彩!
TV应用下载
2017-2-5 20:01:03
dddddddddddddddd
2017-2-5 20:02:53
支持楼主,4K123有你更精彩!
2017-2-5 20:03:40
感谢版主发片

点评

感谢版主发片  详情 回复 发表于 2019-6-21 03:06
2017-2-5 20:05:50
支持楼主,4K123有你更精彩!
2017-2-5 20:39:20
不错,大力支持!
2017-2-5 20:50:00
支持楼主,4K123有你更精彩!
2017-2-5 20:54:08
真是难得给力的资源啊。
2017-2-5 20:55:50
新手前来学习4K
您需要登录后才可以回帖 登录 | 注册
当贝