找回密码
 注册

QQ登录

只需一步,快速开始

[韩国 3D 4K 演唱会现场]Girls Generation(少女时代) - Oh(高码率 HEVC)[2160P/MK...

3113
回复
1990483
查看
  [复制链接]
来源:4K视频下载 2017-4-9 21:36:28 |阅读模式
[韩国 3D 4K 演唱会现场]Girls Generation(少女时代) - Oh(高码率 HEVC)[2160P/MKV/1.18GB]
3D.4K.SAMSUNG_Girls.Generation_Oh_2160p_HEVC_AC-3.5.1.mkv_2017_01.jpg 3D.4K.SAMSUNG_Girls.Generation_Oh_2160p_HEVC_AC-3.5.1.mkv_2017_02.jpg 3D.4K.SAMSUNG_Girls.Generation_Oh_2160p_HEVC_AC-3.5.1.mkv_2017_03.jpg 3D.4K.SAMSUNG_Girls.Generation_Oh_2160p_HEVC_AC-3.5.1.mkv_2017_04.jpg 3D.4K.SAMSUNG_Girls.Generation_Oh_2160p_HEVC_AC-3.5.1.mkv_2017_05.jpg 3D.4K.SAMSUNG_Girls.Generation_Oh_2160p_HEVC_AC-3.5.1.mkv_2017_06.jpg 3D.4K.SAMSUNG_Girls.Generation_Oh_2160p_HEVC_AC-3.5.1.mkv_2017_07.jpg 3D.4K.SAMSUNG_Girls.Generation_Oh_2160p_HEVC_AC-3.5.1.mkv_2017_08.jpg 3D.4K.SAMSUNG_Girls.Generation_Oh_2160p_HEVC_AC-3.5.1.mkv_2017_09.jpg

General
Unique ID : 214400823080452518529959767788921074608 (0xA14C18B6018A0737AC48E901EEE4B3B0)
Complete name : 3D.4K.SAMSUNG_Girls.Generation_Oh_2160p_HEVC_AC-3.5.1.mkv
Format : Matroska
Format version : Version 2
File size : 1.18 GiB
Duration : 3 min 27 s
Overall bit rate : 48.8 Mbps
Movie name : SM_TOWN_CONCERT_3D.Title0
Encoded date : UTC 2016-11-28 04:38:34
Writing application : DVDFab 9.3.1.9
Writing library : libebml v0.7.8 + libmatroska v0.8.1

Video
ID : 1
Format : HEVC
Format/Info : High Efficiency Video Coding
Format profile : Main@L5@High
Codec ID : V_MPEGH/ISO/HEVC
Duration : 3 min 27 s
Bit rate : 47.2 Mbps
Width : 3840 pixels
Height : 2160 pixels
Display aspect ratio : 16:9
Frame rate mode : Constant
Frame rate : 23.976 (24000/1001) FPS
Color space : YUV
Chroma subsampling : 4:2:0
Bit depth : 8 bits
Bits/(Pixel*Frame) : 0.237
Stream size : 1.14 GiB (97%)
Default : Yes
Forced : No
Color range : Limited
Color primaries : BT.709
Transfer characteristics : BT.709
Matrix coefficients : BT.709

Audio
ID : 2
Format : AC-3
Format/Info : Audio Coding 3
Format settings, Endianness : Big
Codec ID : A_AC3
Duration : 3 min 27 s
Bit rate mode : Constant
Bit rate : 640 kbps
Channel(s) : 6 channels
Channel positions : Front: L C R, Side: L R, LFE
Sampling rate : 48.0 kHz
Frame rate : 31.250 FPS (1536 spf)
Bit depth : 16 bits
Compression mode : Lossy
Stream size : 15.8 MiB (1%)
Language : Korean
Service kind : Complete Main
Default : Yes
Forced : No
建议在大屏幕3D 4K电视上观看才能体验最佳的3D现场效果!暂时没有3D 4K电视的网友可选择暴风影音5(2016年之前的版本)影音先锋等PC版播放器把视频切换成红蓝格式3D来播放!

MKV百度云盘
游客,如果您要查看本帖隐藏内容请回复



2017-4-9 21:45:54
支持楼主,4K123有你更精彩!
2017-4-9 21:52:33
楼主厉害,资源真棒。
2017-4-9 21:58:10
這應該是重編碼的........來看看3D版
感謝分享
2017-4-9 21:59:28
厉害,9只时的4K资源啊!还是3D版本,就一个字:你很吊!
2017-4-9 22:00:47
又是涨姿势了
2017-4-9 22:07:00
支持楼主,4K123有你更精彩!
2017-4-9 22:09:00
小手一抖,资源拿走。不要想念我小伙们
2017-4-9 22:13:36
体验一下4K
2017-4-9 22:20:01
真是难得给力的资源啊。
您需要登录后才可以回帖 登录 | 注册
当贝