找回密码
 注册

QQ登录

只需一步,快速开始

【驯龙高手4K】How to Train Your Dragon 2010 2160p/h265/mkv

8201
回复
534199
查看
  [复制链接]
来源:4K视频下载 2014-11-18 12:00:48 |阅读模式
p2172920948.jpg

剧情简介:

      维京岛国的少年小嗝嗝(杰伊•巴鲁切尔 Jay Baruchel 配音)是部落统领伟大的斯托里克(杰拉德·巴特勒 Gerard Butler 配音)的儿子,他非常想像自己的父亲一样亲手屠龙——这些飞龙是岛上维京人放牧羊群的主要天敌——但他每次出现在部落屠龙的战斗中都只给大家徒增烦恼。在一次对抗飞龙的战斗中,希卡普偷偷用射龙器击伤了一只最神秘的“夜之怒龙”,并背着族人放生、豢养,甚至驯服了这只龙,还给它起名“无牙”。希卡普的神秘行径引起了一同训练屠龙技巧的女孩阿斯特丽德(亚美莉卡·费雷拉 America Ferrera 配音)的怀疑。阿斯特丽德发现了希卡普的秘密,却同时被身骑“无牙”御风而飞的美妙体验所震撼。格雷决定在屠龙成人礼上向远征归来的斯托里克和族人讲明真相,说服大家放弃屠龙,却偏偏弄巧成拙,害得“无牙”被俘,一场更大的灾难就在眼前


p453110897.jpg
p456613460.jpg
p451859178.jpg

  1. Complete name : How.to.Train.Your.Dragon.2010.4K UHD.mkv
  2. Format : Matroska
  3. Format version : Version 4 / Version 2
  4. File size : 5.13 GiB
  5. Duration : 1h 37mn
  6. Overall bit rate : 7 510 Kbps
  7. Encoded date : UTC 2014-03-02 17:13:42
  8. Writing application : mkvmerge v6.7.0 (Back to the Ground) 32bit built on Jan 8 2014 15:03:17
  9. Writing library : libebml v1.3.0 + libmatroska v1.4.1

  10. Video
  11. ID : 1
  12. Format : HEVC
  13. Format/Info : High Efficiency Video Coding
  14. Codec ID : V_MPEGH/ISO/HEVC
  15. Duration : 1h 37mn
  16. Bit rate : 5 851 Kbps
  17. Width : 3 840 pixels
  18. Height : 1 632 pixels
  19. Display aspect ratio : 2.35:1
  20. Frame rate mode : Constant
  21. Frame rate : 23.976 fps
  22. Bits/(Pixel*Frame) : 0.039
  23. Stream size : 4.00 GiB (78%)
  24. Language : English
  25. Default : Yes
  26. Forced : No

  27. Audio
  28. ID : 2
  29. Format : DTS
  30. Format/Info : Digital Theater Systems
  31. Mode : 16
  32. Format settings, Endianness : Big
  33. Codec ID : A_DTS
  34. Duration : 1h 37mn
  35. Bit rate mode : Constant
  36. Bit rate : 1 510 Kbps
  37. Channel(s) : 6 channels
  38. Channel positions : Front: L C R, Side: L R, LFE
  39. Sampling rate : 48.0 KHz
  40. Bit depth : 24 bits
  41. Compression mode : Lossy
  42. Stream size : 1.03 GiB (20%)
  43. Language : English
  44. Default : No
  45. Forced : No
复制代码


游客,如果您要查看本帖隐藏内容请回复

2014-11-18 12:02:43
h265格式的电影 我喜欢

点评

第一次玩,请问怎么下载  详情 回复 发表于 2019-7-21 11:00
TV应用下载
2014-11-18 12:05:15
正需要,支持楼主大人了!
2014-11-18 12:07:20
这个是短片还是完整的?
2014-11-18 12:17:18
小手一抖,资源拿走,不要想念我伙伴们
2014-11-18 12:25:39
非常感谢楼主,终于有完整版电影了!
2014-11-18 12:38:05
喜欢,嘻嘻嘻嘻嘻嘻嘻嘻喜喜x
2014-11-18 12:46:10
正需要,支持楼主大人了!
2014-11-18 12:51:26
小手一抖,资源拿走,不要想念我伙伴们
2014-11-18 12:55:15
h265格式的电影 我喜
您需要登录后才可以回帖 登录 | 注册
当贝