找回密码
 注册

QQ登录

只需一步,快速开始

【勇敢传说4K】Brave 2012 4K UHD mkv/2160p/h265(我喜欢的电影)

9439
回复
547287
查看
  [复制链接]
来源:4K视频下载 2014-11-18 12:10:28 |阅读模式

勇敢传说4K

勇敢传说4K


剧情简介:

  长久以来,那些伟大的战争故事和魔幻的传说一直被人们口口相传,一代又一代,生生不息在这片延绵又神秘的苏格兰高地上。迪士尼∙皮克斯的又一诚意之作,勇敢的梅莉达抗争传统束缚,追求自由从而改变自己命运的瑰丽故事横空出世。梅莉达是佛格国王与艾莉诺皇后的长女,她是一名出色的弓箭手, 也有任性不羁,《勇敢传说》讲述的就是她的冒险故事。

   为了走出自己的生活之路,梅莉达拒绝承袭对于3个部落首领(丁瓦、麦金、麦葛)来说神圣不可侵犯的古老传统。梅莉达的鲁莽给她的王国带去了混乱和灾难,当她向森林中的女巫寻求帮助的时候,女巫却实施了灾难性的魔咒。


勇敢传说4K

勇敢传说4K

勇敢传说4K

勇敢传说4K

勇敢传说4K

勇敢传说4K


  1. Complete name : Brave.2012.4K UHD.mkv
  2. Format : Matroska
  3. Format version : Version 4 / Version 2
  4. File size : 6.71 GiB
  5. Duration : 1h 33mn
  6. Overall bit rate : 10.3 Mbps
  7. Encoded date : UTC 2014-03-06 19:47:53

  8. Video
  9. ID : 1
  10. Format : HEVC
  11. Format/Info : High Efficiency Video Coding
  12. Codec ID : V_MPEGH/ISO/HEVC
  13. Duration : 1h 33mn
  14. Bit rate : 6 095 Kbps
  15. Width : 3 840 pixels
  16. Height : 1 600 pixels
  17. Display aspect ratio : 2.40:1
  18. Frame rate mode : Constant
  19. Frame rate : 23.976 fps
  20. Bits/(Pixel*Frame) : 0.041
  21. Stream size : 3.99 GiB (59%)
  22. Language : English
  23. Default : Yes
  24. Forced : No

  25. Audio
  26. ID : 2
  27. Format : DTS
  28. Format/Info : Digital Theater Systems
  29. Mode : 16
  30. Format settings, Endianness : Big
  31. Codec ID : A_DTS
  32. Duration : 1h 33mn
  33. Bit rate mode : Constant
  34. Bit rate : 3 968 Kbps
  35. Channel(s) : 6 channels
  36. Channel positions : Front: L C R, Side: L R, LFE
  37. Sampling rate : 48.0 KHz
  38. Bit depth : 16 bits
  39. Compression mode : Lossy
  40. Stream size : 2.60 GiB (39%)
  41. Language : English
  42. Default : Yes
  43. Forced : No
复制代码


游客,如果您要查看本帖隐藏内容请回复
2014-11-18 12:12:44
说起来丢人  这电影我看哭了~~

点评

看空间少时诵诗书  详情 回复 发表于 2019-6-20 18:43
TV应用下载
2014-11-18 12:17:01
真是难得给力的资源啊。
2014-11-18 12:20:35
很好的电影!
2014-11-18 12:28:45
回复看片,谢谢分享。
2014-11-18 12:33:06
正需要,支持楼主大人了!
2014-11-18 12:36:25
喜欢,嘻嘻嘻嘻嘻嘻
2014-11-18 12:37:12
感恩无私的分享与奉献这么好,真是被感动的痛哭流涕.
2014-11-18 12:49:13
正需要,支持楼主大人了!
2014-11-18 12:56:39
好东西激动人心,无法言表!
您需要登录后才可以回帖 登录 | 注册
当贝