找回密码
 注册

QQ登录

只需一步,快速开始

索尼 4K 演示片 - 另一个世界第二部 (高码率) [2160P/MKV/1.02GB]

4311
回复
677965
查看
  [复制链接]
来源:4K视频下载 2017-8-26 12:09:39 |阅读模式
索尼 4K 演示片 - 另一个世界第二部 (高码率) [2160P/MKV/1.02GB]
(AC-3 5.1环绕声)
SONY.4K.DEMO_Another.World.2.mkv_2017_01.jpg SONY.4K.DEMO_Another.World.2.mkv_2017_02.jpg SONY.4K.DEMO_Another.World.2.mkv_2017_03.jpg SONY.4K.DEMO_Another.World.2.mkv_2017_04.jpg SONY.4K.DEMO_Another.World.2.mkv_2017_05.jpg SONY.4K.DEMO_Another.World.2.mkv_2017_06.jpg SONY.4K.DEMO_Another.World.2.mkv_2017_07.jpg SONY.4K.DEMO_Another.World.2.mkv_2017_08.jpg SONY.4K.DEMO_Another.World.2.mkv_2017_09.jpg SONY.4K.DEMO_Another.World.2.mkv_2017_10.jpg SONY.4K.DEMO_Another.World.2.mkv_2017_11.jpg SONY.4K.DEMO_Another.World.2.mkv_2017_12.jpg SONY.4K.DEMO_Another.World.2.mkv_2017_13.jpg SONY.4K.DEMO_Another.World.2.mkv_2017_14.jpg SONY.4K.DEMO_Another.World.2.mkv_2017_15.jpg

General
Unique ID : 211299653389902586144816269132103178456 (0x9EF6D53D89660D459547BBA63CA058D8)
Complete name : SONY.4K.DEMO_Another.World.2.mkv
Format : Matroska
Format version : Version 4 / Version 2
File size : 1.02 GiB
Duration : 3 min 6 s
Overall bit rate : 47.1 Mbps
Encoded date : UTC 2016-04-10 11:35:43
Writing application : mkvmerge v9.0.1 ('Obstacles') 64bit
Writing library : libebml v1.3.3 + libmatroska v1.4.4

Video
ID : 1
Format : AVC
Format/Info : Advanced Video Codec
Format profile : High@L5.1
Format settings, CABAC : Yes
Format settings, RefFrames : 4 frames
Codec ID : V_MPEG4/ISO/AVC
Duration : 3 min 6 s
Bit rate : 45.5 Mbps
Width : 3840 pixels
Height : 2160 pixels
Display aspect ratio : 16:9
Frame rate mode : Constant
Frame rate : 29.970 (30000/1001) FPS
Color space : YUV
Chroma subsampling : 4:2:0
Bit depth : 8 bits
Scan type : Progressive
Bits/(Pixel*Frame) : 0.183
Stream size : 1 010 MiB (97%)
Writing library : x264 core 142 r2479 dd79a61
Encoding settings : cabac=1 / ref=4 / deblock=1:-1:-1 / analyse=0x3:0x113 / me=umh / subme=10 / psy=1 / psy_rd=1.00:0.15 / mixed_ref=1 / me_range=24 / chroma_me=1 / trellis=2 / 8x8dct=1 / cqm=0 / deadzone=21,11 / fast_pskip=1 / chroma_qp_offset=-3 / threads=12 / lookahead_threads=1 / sliced_threads=0 / nr=0 / decimate=1 / interlaced=0 / bluray_compat=0 / constrained_intra=0 / bframes=3 / b_pyramid=2 / b_adapt=2 / b_bias=0 / direct=1 / weightb=1 / open_gop=0 / weightp=2 / keyint=300 / keyint_min=30 / scenecut=40 / intra_refresh=0 / rc_lookahead=60 / rc=crf / mbtree=1 / crf=15.0 / qcomp=0.60 / qpmin=0 / qpmax=69 / qpstep=4 / vbv_maxrate=50000 / vbv_bufsize=60000 / crf_max=0.0 / nal_hrd=none / filler=0 / ip_ratio=1.40 / aq=1:1.00
Language : English
Default : Yes
Forced : No
Color range : Limited
Color primaries : BT.709
Transfer characteristics : BT.709
Matrix coefficients : BT.709

Audio
ID : 2
Format : AC-3
Format/Info : Audio Coding 3
Format settings, Endianness : Big
Codec ID : A_AC3
Duration : 3 min 6 s
Bit rate mode : Constant
Bit rate : 640 kb/s
Channel(s) : 6 channels
Channel positions : Front: L C R, Side: L R, LFE
Sampling rate : 48.0 kHz
Frame rate : 31.250 FPS (1536 SPF)
Bit depth : 16 bits
Compression mode : Lossy
Delay relative to video : -5 ms
Stream size : 14.2 MiB (1%)
Language : English
Service kind : Complete Main
Default : Yes
Forced : No

播放器 : Potplaye/MPC-HC
建议在大屏幕电视上观看才能体验最佳效果

MKV百度云盘

游客,如果您要查看本帖隐藏内容请回复



2017-8-26 12:12:07
图如如  你好   你好   你好   你好
TV应用下载
2017-8-26 12:15:02
支持楼主,4K123有你更精彩!
2017-8-26 12:28:27
又是涨姿势了

点评

刚刚广告费  详情 回复 发表于 2019-1-3 16:47
2017-8-26 13:01:24
支持楼主,4K123有你更精彩!
2017-8-26 13:09:21
不错,大力支持!
2017-8-26 13:22:04
111111111111
2017-8-26 13:22:15
真是难得给力的资源啊。
2017-8-26 13:23:20
看起来好像不错的样子
2017-8-26 13:29:11
支持楼主,4K123有你更精彩!

点评

索尼4K测试片  详情 回复 发表于 2018-11-24 16:54
您需要登录后才可以回帖 登录 | 注册
当贝