找回密码
 注册

QQ登录

只需一步,快速开始

LG OLED 4K HDR 演示片 - 爵士乐(HEVC 60fps 10bit) [2160P/MP4/1.11GB]

1835
回复
345975
查看
[复制链接]
来源:4K视频下载 2017-9-16 12:39:39 |阅读模式
本帖最后由 klpoij89 于 2018-1-20 21:12 编辑

LG OLED 4K HDR 演示片 - 爵士乐(HEVC 60fps 10bit) [2160P/MP4/1.11GB]
(OLED电视专用4K演示片)
LG.OLED.4K.HDR.DEMO_Cymatic.Jazz.HDR10.mp4_2017_01.jpg LG.OLED.4K.HDR.DEMO_Cymatic.Jazz.HDR10.mp4_2017_02.jpg LG.OLED.4K.HDR.DEMO_Cymatic.Jazz.HDR10.mp4_2017_03.jpg LG.OLED.4K.HDR.DEMO_Cymatic.Jazz.HDR10.mp4_2017_04.jpg LG.OLED.4K.HDR.DEMO_Cymatic.Jazz.HDR10.mp4_2017_05.jpg LG.OLED.4K.HDR.DEMO_Cymatic.Jazz.HDR10.mp4_2017_06.jpg LG.OLED.4K.HDR.DEMO_Cymatic.Jazz.HDR10.mp4_2017_07.jpg LG.OLED.4K.HDR.DEMO_Cymatic.Jazz.HDR10.mp4_2017_08.jpg LG.OLED.4K.HDR.DEMO_Cymatic.Jazz.HDR10.mp4_2017_09.jpg LG.OLED.4K.HDR.DEMO_Cymatic.Jazz.HDR10.mp4_2017_10.jpg LG.OLED.4K.HDR.DEMO_Cymatic.Jazz.HDR10.mp4_2017_11.jpg

General
Complete name : LG.OLED.4K.HDR.DEMO_Cymatic.Jazz.HDR10.mp4
Format : MPEG-4
Format profile : Base Media
Codec ID : isom (isom/iso2/mp41)
File size : 1.11 GiB
Duration : 2 min 38 s
Overall bit rate mode : Variable
Overall bit rate : 60.1 Mbps
Encoded date : UTC 2017-06-04 23:05:26
Tagged date : UTC 2017-06-04 23:05:26
Writing application : Lavf57.72.101

Video
ID : 1
Format : HEVC
Format/Info : High Efficiency Video Coding
Format profile : Main 10@L5.1@High
Codec ID : hev1
Codec ID/Info : High Efficiency Video Coding
Duration : 2 min 38 s
Bit rate : 60.0 Mbps
Width : 3840 pixels
Height : 2160 pixels
Display aspect ratio : 16:9
Frame rate mode : Variable
Frame rate : 59.940 (60000/1001) FPS
Minimum frame rate : 59.920 FPS
Maximum frame rate : 59.960 FPS
Color space : YUV
Chroma subsampling : 4:2:0
Bit depth : 10 bits
Bits/(Pixel*Frame) : 0.121
Stream size : 1.11 GiB (100%)
Writing library : ATEME Titan KFE 3.7.3 (4.7.3.1003)
Encoded date : UTC 2017-06-04 23:05:26
Tagged date : UTC 2017-06-04 23:05:26
Color range : Limited
Color primaries : BT.2020
Transfer characteristics : SMPTE ST 2084
Matrix coefficients : BT.2020 non-constant
Mastering display color primar : R: x=0.680000 y=0.320000, G: x=0.265000 y=0.690000, B: x=0.150000 y=0.060000, White point: x=0.312700 y=0.329000
Mastering display luminance : min: 0.0040 cd/m2, max: 1100.0000 cd/m2

Audio
ID : 2
Format : AAC
Format/Info : Advanced Audio Codec
Format profile : LC
Codec ID : 40
Duration : 2 min 38 s
Bit rate mode : Variable
Bit rate : 126 kbps
Maximum bit rate : 128 kbps
Channel(s) : 2 channels
Channel positions : Front: L R
Sampling rate : 48.0 kHz
Frame rate : 46.875 FPS (1024 SPF)
Compression mode : Lossy
Stream size : 2.38 MiB (0%)
Default : Yes
Alternate group : 1
Encoded date : UTC 2017-06-04 23:05:26
Tagged date : UTC 2017-06-04 23:05:26
HDR ! So your TV has to be able to play this format !
4K
OLED HDR电视上观看才能体验最佳效果!
播放器 : Potplaye(2017版本)

MP4百度云盘
游客,如果您要查看本帖隐藏内容请回复


2017-9-16 12:42:34
支持楼主,4K123有你更精彩!
TV应用下载
2017-9-16 12:53:46
小手一抖,资源拿走。不要想念我小伙们
2017-9-16 13:24:27
OLED电视上才能体验出真正的感觉
2017-9-16 13:35:41
thanks!!!!!!!!!!!!!
2017-9-16 13:40:22
小手一抖,资源拿走。不要想念我小伙们
2017-9-16 13:41:19
新手前来学习4K
2017-9-16 13:43:55
小手一抖,资源拿走。不要想念我小伙们
2017-9-16 13:46:00
看起来好像不错的样子
2017-9-16 14:01:39 来自4K123手机版
感谢楼主分享。
您需要登录后才可以回帖 登录 | 注册
当贝