找回密码
 注册

QQ登录

只需一步,快速开始

索尼 BRAVIA OLED A1 4K HDR 演示片 - Food Fizzle (HEVC 60fps 10bit)[2160P/MP4/...

5964
回复
787877
查看
  [复制链接]
来源:4K视频下载 2017-9-21 06:36:19 |阅读模式
索尼 BRAVIA OLED A1 4K HDR 演示片 - Food Fizzle (HEVC 60fps 10bit)[2160P/MP4/726MB]
(OLED电视专用4K演示片)
SONY.BRAVIA.OLED.4K.HDR.DEMO_Food .Fizzle.mp4_2017_01.jpg SONY.BRAVIA.OLED.4K.HDR.DEMO_Food .Fizzle.mp4_2017_02.jpg SONY.BRAVIA.OLED.4K.HDR.DEMO_Food .Fizzle.mp4_2017_03.jpg SONY.BRAVIA.OLED.4K.HDR.DEMO_Food .Fizzle.mp4_2017_04.jpg SONY.BRAVIA.OLED.4K.HDR.DEMO_Food .Fizzle.mp4_2017_05.jpg SONY.BRAVIA.OLED.4K.HDR.DEMO_Food .Fizzle.mp4_2017_06.jpg SONY.BRAVIA.OLED.4K.HDR.DEMO_Food .Fizzle.mp4_2017_07.jpg SONY.BRAVIA.OLED.4K.HDR.DEMO_Food .Fizzle.mp4_2017_08.jpg SONY.BRAVIA.OLED.4K.HDR.DEMO_Food .Fizzle.mp4_2017_09.jpg SONY.BRAVIA.OLED.4K.HDR.DEMO_Food .Fizzle.mp4_2017_10.jpg SONY.BRAVIA.OLED.4K.HDR.DEMO_Food .Fizzle.mp4_2017_11.jpg SONY.BRAVIA.OLED.4K.HDR.DEMO_Food .Fizzle.mp4_2017_12.jpg SONY.BRAVIA.OLED.4K.HDR.DEMO_Food .Fizzle.mp4_2017_13.jpg

General
Complete name : SONY.BRAVIA.OLED.4K.HDR.DEMO_Food .Fizzle.mp4
Format : MPEG-4
Format profile : Base Media / Version 2
Codec ID : mp42 (mp42/iso4)
File size : 726 MiB
Duration : 1 min 22 s
Overall bit rate : 74.2 Mbps
Encoded date : UTC 2017-02-27 02:06:58
Tagged date : UTC 2017-02-27 02:06:58

Video
ID : 1
Format : HEVC
Format/Info : High Efficiency Video Coding
Format profile : Main 10@L5.1@High
Codec ID : hvc1
Codec ID/Info : High Efficiency Video Coding
Duration : 1 min 22 s
Bit rate : 74.0 Mbps
Width : 3840 pixels
Height : 2160 pixels
Display aspect ratio : 16:9
Frame rate mode : Constant
Frame rate : 59.940 (60000/1001) FPS
Color space : YUV
Chroma subsampling : 4:2:0 (Type 2)
Bit depth : 10 bits
Bits/(Pixel*Frame) : 0.149
Stream size : 725 MiB (100%)
Encoded date : UTC 2017-02-27 02:06:58
Tagged date : UTC 2017-02-27 02:06:58
Color range : Limited
Color primaries : BT.2020
Transfer characteristics : SMPTE ST 2084
Matrix coefficients : BT.2020 non-constant
Mastering display color primar : R: x=1.000000 y=1.000000, G: x=1.000000 y=1.000000, B: x=1.000000 y=1.000000, White point: x=1.000000 y=1.000000
Mastering display luminance : min: 0.1000 cd/m2, max: 0.5000 cd/m2

Audio
ID : 2
Format : AAC
Format/Info : Advanced Audio Codec
Format profile : LC
Codec ID : 40
Duration : 1 min 22 s
Bit rate mode : Constant
Bit rate : 192 kbps
Channel(s) : 2 channels
Channel positions : Front: L R
Sampling rate : 48.0 kHz
Frame rate : 46.875 FPS (1024 SPF)
Compression mode : Lossy
Stream size : 1.88 MiB (0%)
Language : English
Encoded date : UTC 2017-02-27 02:06:58
Tagged date : UTC 2017-02-27 02:06:58
Demo Ultra HD & HDR (HDR10)by Sony(for Sony OLED A1 Demo)
HDR ! So your TV has to be able to play this format !
OLED
4K HDR电视上观看才能体验最佳效果!
播放器 : Potplaye(2017版本)

MP4百度云盘
游客,如果您要查看本帖隐藏内容请回复


2017-9-21 07:11:17
支持楼主,4K123有你更精彩!
TV应用下载
2017-9-21 07:18:22
支持楼主,4K123有你更精彩!
2017-9-21 07:42:36
很不错的。。。。。。。。。。。。。。
2017-9-21 07:47:57
太好啦!谢谢版主的无私分享!
2017-9-21 08:07:56
看着好有胃口,谢谢分享。
2017-9-21 08:10:03
谢谢分享。
2017-9-21 08:12:36
感谢楼主分享!
2017-9-21 08:13:14
支持楼主,4K123有你更精彩!
2017-9-21 08:19:21
谢谢分享。
您需要登录后才可以回帖 登录 | 注册
当贝