找回密码
 注册

QQ登录

只需一步,快速开始

[4K短片] 专业DTS:X 7.1环绕声测试 - 特色 (高码率 HEVC 10bit)[2160P/MKV/968MB]

1867
回复
106254
查看
[复制链接]
来源:4K视频下载 2018-6-3 23:00:19 显示全部楼层 |阅读模式
[4K短片] 专业DTS:X 7.1环绕声测试 - 特色 (高码率 HEVC 10bit)[2160P/MKV/968MB]
(无损音质)
DTS_X_Features_(Lossless)_(UHD-DWEU).mkv_2018_01.jpg DTS_X_Features_(Lossless)_(UHD-DWEU).mkv_2018_02.jpg DTS_X_Features_(Lossless)_(UHD-DWEU).mkv_2018_03.jpg DTS_X_Features_(Lossless)_(UHD-DWEU).mkv_2018_04.jpg DTS_X_Features_(Lossless)_(UHD-DWEU).mkv_2018_05.jpg DTS_X_Features_(Lossless)_(UHD-DWEU).mkv_2018_06.jpg DTS_X_Features_(Lossless)_(UHD-DWEU).mkv_2018_07.jpg DTS_X_Features_(Lossless)_(UHD-DWEU).mkv_2018_08.jpg
DTS:X技术是开放式的新一代的编解码标准,同时也是基于对象的多维空间音频技术(以下简称MDA)。不论是在电影院或家庭环境,DTS:X都能呈现栩栩如生、振人心魄的娱乐体验。观众将获得前所未有维度的沉浸式包围体验。电影院或是家庭影院的用户也可以通过多种方式进行个性化设置以获得最佳效果。
与现有的环绕声系统不同,DTS:X音频不再受到固定位置的扬声器摆位或具体声道信号的束缚,它能根据回放环境的不同进行灵活调试,从而获得在该环境下最佳的音效表现。它还能够在观众周围的精确位置点上营造逼真的声音效果,缔造更为丰富的音景。可以说,不管声音是在观众的前面,后面,头顶或者身边,DTS:X都能精准无误的在电影院或者家庭影院环境里按照声音原本所处的位置定位每一个声音细节。


General
Unique ID : 235257063515309348655183014110755166826 (0xB0FCDCC15964200E9B032BBAEBCE1A6A)
Complete name : DTS_X_Features_(Lossless)_(UHD-DWEU).mkv
Format : Matroska
Format version : Version 4 / Version 2
File size : 968 MiB
Duration : 1 min 41 s
Overall bit rate : 79.7 Mbps
Encoded date : UTC 2018-03-04 14:13:53
Writing application : mkvmerge v21.0.0 ('Tardigrades Will Inherit The Earth') 64-bit
Writing library : libebml v1.3.5 + libmatroska v1.4.8

Video
ID : 1
Format : HEVC
Format/Info : High Efficiency Video Coding
Format profile : Main 10@L5.1@High
Codec ID : V_MPEGH/ISO/HEVC
Duration : 1 min 41 s
Bit rate : 71.5 Mbps
Width : 3840 pixels
Height : 2160 pixels
Display aspect ratio : 16:9
Frame rate mode : Constant
Frame rate : 23.976 (24000/1001) FPS
Color space : YUV
Chroma subsampling : 4:2:0
Bit depth : 10 bits
Bits/(Pixel*Frame) : 0.359
Stream size : 868 MiB (90%)
Writing library : ATEME Titan KFE 3.7.3 (4.7.3.1003)
Default : Yes
Forced : No
Color range : Limited
Color primaries : BT.709
Transfer characteristics : BT.709
Matrix coefficients : BT.709

Audio
ID : 2
Format : DTS
Format/Info : Digital Theater Systems
Format profile : X / MA / Core
Codec ID : A_DTS
Duration : 1 min 41 s
Bit rate mode : Variable / Variable / Constant
Bit rate : 8287 kbps / 8287 kbps / 1509 kbps
Channel(s) : Object Based / 8 channels / 6 channels
Channel positions : Object Based / Front: L C R, Side: L R, Back: L R, LFE / Front: L C R, Side: L R, LFE
Sampling rate : / 48.0 kHz / 48.0 kHz
Frame rate : 93.750 FPS (512 SPF)
Bit depth : / 24 bits / 24 bits
Compression mode : / Lossless / Lossy
Stream size : 100 MiB (10%)
Language : English
Default : Yes
Forced : No
PC播放器: Potplayer/MPC-HC
MKV百度云盘

游客,如果您要查看本帖隐藏内容请回复


影视快搜下载
回复

使用道具 举报

2018-6-3 23:05:56 显示全部楼层
thank you.
回复

使用道具 举报

2018-6-3 23:08:14 显示全部楼层
支持楼主,4K123有你更精彩!
回复 支持 1 反对 0

使用道具 举报

2018-6-3 23:12:02 显示全部楼层
看起来好像不错的样子
回复 支持 反对

使用道具 举报

2018-6-3 23:26:23 显示全部楼层
新手前来学习4K
回复 支持 反对

使用道具 举报

2018-6-3 23:26:53 显示全部楼层
4K太震撼了,希望早日普及
回复 支持 反对

使用道具 举报

2018-6-3 23:26:54 显示全部楼层
thx so much
回复

使用道具 举报

2018-6-3 23:27:33 显示全部楼层
试试看~~~~~~~~~~~
回复

使用道具 举报

2018-6-3 23:30:20 显示全部楼层
支持楼主,4K123有你更精彩!
回复 支持 反对

使用道具 举报

2018-6-3 23:44:41 显示全部楼层
马克,真是涨姿势了
回复 支持 反对

使用道具 举报

您需要登录后才可以回帖 登录 | 注册