找回密码
 注册

QQ登录

只需一步,快速开始

CableLabs 4K HDR 演示片 - Life Untouched 蝴蝶 (HEVC 60fps 10bit) [2160P/MP4/4...

4919
回复
670801
查看
  [复制链接]
来源:4K视频下载 2018-8-6 21:56:30 |阅读模式
CableLabs 4K HDR 演示片 - Life Untouched 蝴蝶 (HEVC 60fps 10bit) [2160P/MP4/450MB]
CableLabs.4K.HDR.DEMO_Life.Untouched.mp4_2018_01.jpg CableLabs.4K.HDR.DEMO_Life.Untouched.mp4_2018_02.jpg CableLabs.4K.HDR.DEMO_Life.Untouched.mp4_2018_03.jpg CableLabs.4K.HDR.DEMO_Life.Untouched.mp4_2018_04.jpg CableLabs.4K.HDR.DEMO_Life.Untouched.mp4_2018_05.jpg CableLabs.4K.HDR.DEMO_Life.Untouched.mp4_2018_06.jpg CableLabs.4K.HDR.DEMO_Life.Untouched.mp4_2018_07.jpg CableLabs.4K.HDR.DEMO_Life.Untouched.mp4_2018_08.jpg CableLabs.4K.HDR.DEMO_Life.Untouched.mp4_2018_09.jpg
General
Complete name : CableLabs.4K.HDR.DEMO_Life.Untouched.mp4
Format : MPEG-4
Format profile : Base Media
Codec ID : isom (isom/iso2/mp41)
File size : 450 MiB
Duration : 3 min 17 s
Overall bit rate mode : Variable
Overall bit rate : 19.1 Mbps
Encoded date : UTC 2017-06-05 00:13:25
Tagged date : UTC 2017-06-05 00:13:25
Writing application : Lavf57.72.101

Video
ID : 1
Format : HEVC
Format/Info : High Efficiency Video Coding
Format profile : Main 10@L5.1@Main
Codec ID : hev1
Codec ID/Info : High Efficiency Video Coding
Duration : 3 min 17 s
Bit rate : 18.9 Mbps
Width : 3840 pixels
Height : 2160 pixels
Display aspect ratio : 16:9
Frame rate mode : Variable
Frame rate : 59.940 (60000/1001) FPS
Minimum frame rate : 59.920 FPS
Maximum frame rate : 59.960 FPS
Color space : YUV
Chroma subsampling : 4:2:0
Bit depth : 10 bits
Bits/(Pixel*Frame) : 0.038
Stream size : 446 MiB (99%)
Writing library : ATEME Titan File 3.7.2 (4.7.2.1001)
Language : English
Encoded date : UTC 2017-06-05 00:13:25
Tagged date : UTC 2017-06-05 00:13:25
Color range : Limited
Color primaries : BT.2020
Transfer characteristics : PQ
Matrix coefficients : BT.2020 non-constant

Audio
ID : 2
Format : AAC
Format/Info : Advanced Audio Codec
Format profile : LC
Codec ID : mp4a-40-2
Duration : 3 min 17 s
Bit rate mode : Variable
Bit rate : 127 kbps
Channel(s) : 2 channels
Channel positions : Front: L R
Sampling rate : 48.0 kHz
Frame rate : 46.875 FPS (1024 SPF)
Compression mode : Lossy
Stream size : 2.96 MiB (1%)
Default : Yes
Alternate group : 1
Encoded date : UTC 2017-06-05 00:13:25
Tagged date : UTC 2017-06-05 00:13:25
HDR ! So your TV has to be able to play this format !
4K HDR电视上观看才能体验最佳效果!
PC播放器 : Potplayer(最新版)

MP4百度云盘
游客,如果您要查看本帖隐藏内容请回复


TV应用下载
2018-8-6 21:58:39
大自然喜欢
TV应用下载
2018-8-6 22:06:21
马克,真是涨姿势了
2018-8-6 22:11:08
非常感谢。。。。。。。。。。
2018-8-6 22:21:38
画面很震撼,截屏的每一张都可以作为屏保啊!
2018-8-6 22:23:25
好漂亮的蝴蝶呀
2018-8-6 22:27:55
谢谢分享,紫薯布丁
2018-8-6 22:33:18
支持楼主,4K123有你更精彩!
2018-8-6 22:42:20
非常漂亮,谢谢分享
2018-8-6 22:49:48
4K太震撼了,希望早日普及
2018-8-6 22:52:16
不错的资源
2018-8-6 22:57:43
4KHDR4KHDR
2018-8-6 23:01:58
HDR技术简直无处不在
2018-8-6 23:12:30
我家4K电视又可以测试了
2018-8-6 23:12:34
看起来好像不错的样子
2018-8-6 23:25:30
支持楼主,4K123有你更精彩!
2018-8-6 23:38:23
这个看起来效果相当 得了,下载收藏。
2018-8-6 23:54:48
支持楼主,4K123有你更精彩!
2018-8-7 00:00:36
马克,真是涨姿势了
2018-8-7 00:11:14
支持楼主,4K123有你更精彩!
2018-8-7 00:11:44
非常感谢, 非常感谢!!
2018-8-7 00:12:59
感谢分享
2018-8-7 01:53:40
456456456465
2018-8-7 02:39:31
HDR的吗?
2018-8-7 02:59:32
支持楼主,4K123有你更精彩!
2018-8-7 04:33:20
4K123有你更精彩!谢谢分享
2018-8-7 05:53:16
支持楼主,4K123有你更精彩!
2018-8-7 06:08:21
HDR ! So your TV has to be able to play this format !
在4K HDR电视上观看才能体验最佳效果!
PC播放器 : Potplayer(最新版)
2018-8-7 06:11:03
超大型收藏
2018-8-7 06:14:29
马克,真是涨姿势了
2018-8-7 06:42:20
又出了新片了,真不错
2018-8-7 07:12:41
资源很给力啊!
2018-8-7 07:20:15
谢谢楼主分享!
2018-8-7 07:31:25
感谢楼主分享!
2018-8-7 08:31:34
fefetert4y5uy
2018-8-7 08:34:09
资源很给力啊!
2018-8-7 08:36:44
资源很给力啊!
2018-8-7 08:37:29
新手前来学习4K
2018-8-7 08:43:52
支持楼主,4K123有你更精彩!
2018-8-7 08:46:54
谢谢分享,紫薯布丁
2018-8-7 08:55:32
今天我能幸运一回吗
2018-8-7 09:13:28
支持楼主,4K123有你更精彩!
2018-8-7 09:19:59
马克,真是涨姿势了
2018-8-7 09:23:14
55555555555
2018-8-7 09:34:18
谢谢分享吧
2018-8-7 09:36:10
马克,真是涨姿势了
2018-8-7 09:36:46
hoaodasd
2018-8-7 09:37:48
支持楼主,4K123有你更精彩!
2018-8-7 09:41:59
超厉害的视频
2018-8-7 10:03:31
非常漂亮,谢谢分享
您需要登录后才可以回帖 登录 | 注册
当贝