找回密码
 注册

QQ登录

只需一步,快速开始

楼主: 刘302

[4K.游戏Demo] 极限竞速.地平线4 Forza Horizon 4 4K_60P[MP4/516M]

648
回复
214740
查看
[复制链接]
2019-1-27 01:14:59
看起来好像不错的样子
2019-1-27 05:00:34
马克,真是涨姿势了
TV应用下载
2019-1-27 07:50:55
4K太震撼了,希望早日普及
2019-1-27 08:29:03
谢谢楼主分享!
2019-1-27 09:03:46
看起来好像不错的样子
2019-1-27 09:15:30
非常感谢楼主!
2019-1-27 10:12:14
多谢楼主分享!!!
2019-1-27 10:13:19
马克,真是涨姿势了
2019-1-27 10:23:11
         1# 来源:4K视频下载 昨天 08:32  回帖奖励  [4K.游戏Demo] 极限竞速.地平线4 Forza Horizon 4 4K_60P[MP4/516M]    [4K.游戏Demo] 极限竞速.地平线4 Forza Horizon 4 4K_60P[MP4/516M]    [4K.游戏Demo] 极限竞速.地平线4 Forza Horizon 4 4K_60P[MP4/516M]    [4K.游戏Demo] 极限竞速.地平线4 Forza Horizon 4 4K_60P[MP4/516M]    [4K.游戏Demo] 极限竞速.地平线4 Forza Horizon 4 4K_60P[MP4/516M]    [4K.游戏Demo] 极限竞速.地平线4 Forza Horizon 4 4K_60P[MP4/516M]   General Complete name                  : [4K.游戏Demo] 极限竞速.地平线4 Forza Horizon 4 4K_60P.mp4 Format                         : MPEG-4 Format profile                 : Base Media / Version 2 Codec ID                       : mp42 (isom/mp42) File size                      : 516 MiB Duration                       : 1 min 28 s Overall bit rate               : 49.2 Mb/s Recorded date                  : 2019 Encoded date                   : UTC 2019-01-25 21:57:41 Tagged date                    : UTC 2019-01-25 21:57:41  Video ID                             : 1 Format                         : AVC Format/Info                    : Advanced Video Codec Format profile                 : High@L5.1 Format settings                : CABAC / 1 Ref Frames Format settings, CABAC         : Yes Format settings, ReFrames      : 1 frame Format settings, GOP           : M=1, N=30 Codec ID                       : avc1 Codec ID/Info                  : Advanced Video Coding Duration                       : 1 min 28 s Source duration                : 1 min 28 s Bit rate                       : 49.0 Mb/s Width                          : 3 840 pixels Height                         : 2 160 pixels Display aspect ratio           : 16:9 Frame rate mode                : Variable Frame rate                     : 60.000 FPS Minimum frame rate             : 58.670 FPS Maximum frame rate             : 61.100 FPS Standard                       : PAL Color space                    : YUV Chroma subsampling             : 4:2:0 Bit depth                      : 8 bits Scan type                      : Progressive Bits/(Pixel*Frame)             : 0.098 Stream size                    : 514 MiB (100%) Source stream size             : 514 MiB (100%) Title                          : VideoHandle Encoded date                   : UTC 2019-01-25 21:57:41 Tagged date                    : UTC 2019-01-25 21:57:41 Color range                    : Limited Color primaries                : BT.601 NTSC Transfer characteristics       : BT.470 System M Matrix coefficients            : BT.601 mdhd_Duration                  : 88035 Codec configuration box        : avcC  Audio ID                             : 2 Format                         : AAC LC Format/Info                    : Advanced Audio Codec Low Complexity Codec ID                       : mp4a-40-2 Duration                       : 1 min 27 s Source duration                : 1 min 27 s Bit rate mode                  : Constant Bit rate                       : 192 kb/s Nominal bit rate               : 96.0 kb/s Channel(s)                     : 2 channels Channel layout                 : L R Sampling rate                  : 48.0 kHz Frame rate                     : 46.875 FPS (1024 SPF) Compression mode               : Lossy Stream size                    : 2.05 MiB (0%) Source stream size             : 2.05 MiB (0%) Title                          : SoundHandle / System sounds Encoded date                   : UTC 2019-01-25 21:57:41 Tagged date                    : UTC 2019-01-25 21:57:41 mdhd_Duration                  : 87915
2019-1-27 10:24:05
新手前来学习4K
您需要登录后才可以回帖 登录 | 注册
当贝