找回密码
 注册

QQ登录

只需一步,快速开始

《2019春节联欢晚会》CCTV UHD 4K超高清频道

3132
回复
464862
查看
  [复制链接]
来源:4K视频下载 2019-2-9 14:28:21 |阅读模式
《2019春节联欢晚会》CCTV UHD 4K超高清频道

2019年春晚.ts_20190209_131723.243.jpg
2019年春晚.ts_20190209_132651.323.jpg
2019年春晚.ts_20190209_132349.699.jpg
2019年春晚.ts_20190209_132804.611.jpg
2019年春晚.ts_20190209_140622.508.jpg
2019年春晚.ts_20190209_134013.211.jpg
d1046db2ly1fztdhnn9oaj20u06pu1kx.jpg




General
ID                             : 64 (0x40)
Complete name                  : E:\BaiduYunDownload\《2019年春节联欢晚会》.ts
Format                         : MPEG-TS
File size                      : 63.3 GiB
Duration                       : 4 h 59 min
Overall bit rate mode          : Variable
Overall bit rate               : 30.2 Mb/s


Video
ID                             : 160 (0xA0)
Menu ID                        : 6401 (0x1901)
Format                         : HEVC
Format/Info                    : High Efficiency Video Coding
Format profile                 : Main 10@L5@Main
Codec ID                       : 36
Duration                       : 25 h 24 min
Bit rate                       : 28.1 Mb/s
Width                          : 3 840 pixels
Height                         : 2 160 pixels
Display aspect ratio           : 16:9
Frame rate                     : 50.000 FPS
Standard                       : Component
Color space                    : YUV
Chroma subsampling             : 4:2:0 (Type 0)
Bit depth                      : 10 bits
Bits/(Pixel*Frame)             : 0.068
Stream size                    : 300 GiB
Color range                    : Limited
Color primaries                : BT.709
Transfer characteristics       : BT.709
Matrix coefficients            : BT.709


Audio #1
ID                             : 80 (0x50)
Menu ID                        : 6401 (0x1901)
Format                         : MPEG Audio
Format version                 : Version 1
Format profile                 : Layer 2
Codec ID                       : 4
Duration                       : 4 h 59 min
Bit rate mode                  : Constant
Bit rate                       : 128 kb/s
Channel(s)                     : 2 channels
Sampling rate                  : 48.0 kHz
Frame rate                     : 41.667 FPS (1152 SPF)
Compression mode               : Lossy
Delay relative to video        : -320 ms
Stream size                    : 275 MiB (0%)


Audio #2
ID                             : 81 (0x51)
Menu ID                        : 6401 (0x1901)
Format                         : AC-3
Format/Info                    : Audio Coding 3
Commercial name                : Dolby Digital
Codec ID                       : 129
Duration                       : 4 h 59 min
Bit rate mode                  : Constant
Bit rate                       : 448 kb/s
Channel(s)                     : 6 channels
Channel layout                 : L R C LFE Ls Rs
Sampling rate                  : 48.0 kHz
Frame rate                     : 31.250 FPS (1536 SPF)
Bit depth                      : 16 bits
Compression mode               : Lossy
Delay relative to video        : -304 ms
Stream size                    : 961 MiB (1%)
Service kind                   : Complete Main


游客,如果您要查看本帖隐藏内容请回复


2019-2-9 22:48:28

求大话西游4K版视频

求大话西游4K版视频

点评

2019年春节晚会还好  详情 回复 发表于 2019-4-23 13:02
大话西游的母版最多是是1080P的吧,上世纪哪有4K摄影机  详情 回复 发表于 2019-2-16 15:31
TV应用下载
2019-2-11 16:07:35
支持楼主,4K123有你更精彩!
2019-2-11 16:16:00
《2019春节联欢晚会》CCTV UHD 4K超高清频道
2019-2-11 16:19:21
马克,真是涨姿势了
2019-2-11 16:27:42
支持楼主,4K123有你更精彩!
2019-2-11 16:32:09
看起来好像不错的样子
2019-2-11 16:39:00
支持楼主
2019-2-11 16:39:30
#4K版视频
2019-2-11 16:41:48
期待已久,下来收藏了
您需要登录后才可以回帖 登录 | 注册
当贝