找回密码
 注册

QQ登录

只需一步,快速开始

4k大黄蜂

32
回复
14513
查看
[复制链接]
来源:4K视频下载 2019-6-30 00:18:50 |阅读模式
搜狗截图20190630001256.jpg 搜狗截图20190629235731~4.jpg 搜狗截图20190629235705~4.jpg
but    我的会员到期了,下面是文件信息
General
ID                             : 0 (0x0)
Complete name                  : F:\影视\大黄蜂-4K原盘.m2ts
Format                         : BDAV
Format/Info                    : Blu-ray Video
File size                      : 59.3 GiB
Duration                       : 1 h 53 min
Overall bit rate mode          : Variable
Overall bit rate               : 74.5 Mb/s
Maximum Overall bit rate       : 109 Mb/s

Video #1
ID                             : 4113 (0x1011)
Menu ID                        : 1 (0x1)
Format                         : HEVC
Format/Info                    : High Efficiency Video Coding
Commercial name                : HDR10
Format profile                 : Main 10@L5.1@High
Codec ID                       : 36
Duration                       : 1 h 53 min
Width                          : 3 840 pixels
Height                         : 2 160 pixels
Display aspect ratio           : 16:9
Frame rate                     : 23.976 (24000/1001) FPS
Color space                    : YUV
Chroma subsampling             : 4:2:0 (Type 2)
Bit depth                      : 10 bits
Color range                    : Limited
Color primaries                : BT.2020
Transfer characteristics       : PQ
Matrix coefficients            : BT.2020 non-constant
Mastering display color primar : Display P3
Mastering display luminance    : min: 0.0001 cd/m2, max: 1000 cd/m2

Video #2
ID                             : 4117 (0x1015)
Menu ID                        : 1 (0x1)
Format                         : HEVC
Format/Info                    : High Efficiency Video Coding
Commercial name                : HDR10
Format profile                 : Main 10@L5.1@High
Codec ID                       : 36
Duration                       : 1 h 53 min
Width                          : 1 920 pixels
Height                         : 1 080 pixels
Display aspect ratio           : 16:9
Frame rate                     : 23.976 (24000/1001) FPS
Color space                    : YUV
Chroma subsampling             : 4:2:0 (Type 2)
Bit depth                      : 10 bits
Color range                    : Limited
Color primaries                : BT.2020
Transfer characteristics       : PQ
Matrix coefficients            : BT.2020 non-constant
Mastering display color primar : Display P3
Mastering display luminance    : min: 0.0001 cd/m2, max: 1000 cd/m2

Audio #1
ID                             : 4352 (0x1100)
Menu ID                        : 1 (0x1)
Format                         : AC-3 MLP FBA 16-ch
Format/Info                    : Audio Coding 3 + Meridian Lossless Packing FBA with 16-channel presentation
Commercial name                : Dolby TrueHD with Dolby Atmos
Muxing mode                    : Stream extension
Codec ID                       : 131
Duration                       : 1 h 53 min
Bit rate mode                  : Variable
Bit rate                       : 640 kb/s
Maximum bit rate               : 7 761 kb/s
Channel(s)                     : 8 channels
Channel layout                 : L R C LFE Ls Rs Lb Rb
Sampling rate                  : 48.0 kHz
Frame rate                     : 31.250 FPS (1536 SPF)
Bit depth                      : 16 bits
Compression mode               : Lossy
Stream size                    : 521 MiB (1%)
Service kind                   : Complete Main
Number of dynamic objects      : 11
Bed channel count              : 1 channel
Bed channel configuration      : LFE

Audio #2
ID                             : 4353 (0x1101)
Menu ID                        : 1 (0x1)
Format                         : AC-3
Format/Info                    : Audio Coding 3
Commercial name                : Dolby Digital
Codec ID                       : 129
Duration                       : 1 h 53 min
Bit rate mode                  : Constant
Bit rate                       : 640 kb/s
Channel(s)                     : 6 channels
Channel layout                 : L R C LFE Ls Rs
Sampling rate                  : 48.0 kHz
Frame rate                     : 31.250 FPS (1536 SPF)
Bit depth                      : 16 bits
Compression mode               : Lossy
Stream size                    : 521 MiB (1%)
Service kind                   : Complete Main

Audio #3
ID                             : 4354 (0x1102)
Menu ID                        : 1 (0x1)
Format                         : AC-3
Format/Info                    : Audio Coding 3
Commercial name                : Dolby Digital
Codec ID                       : 129
Duration                       : 1 h 53 min
Bit rate mode                  : Constant
Bit rate                       : 640 kb/s
Channel(s)                     : 6 channels
Channel layout                 : L R C LFE Ls Rs
Sampling rate                  : 48.0 kHz
Frame rate                     : 31.250 FPS (1536 SPF)
Bit depth                      : 16 bits
Compression mode               : Lossy
Stream size                    : 521 MiB (1%)
Service kind                   : Complete Main

Audio #4
ID                             : 4355 (0x1103)
Menu ID                        : 1 (0x1)
Format                         : AC-3
Format/Info                    : Audio Coding 3
Commercial name                : Dolby Digital
Codec ID                       : 129
Duration                       : 1 h 53 min
Bit rate mode                  : Constant
Bit rate                       : 640 kb/s
Channel(s)                     : 6 channels
Channel layout                 : L R C LFE Ls Rs
Sampling rate                  : 48.0 kHz
Frame rate                     : 31.250 FPS (1536 SPF)
Bit depth                      : 16 bits
Compression mode               : Lossy
Stream size                    : 521 MiB (1%)
Service kind                   : Complete Main

Audio #5
ID                             : 4356 (0x1104)
Menu ID                        : 1 (0x1)
Format                         : AC-3
Format/Info                    : Audio Coding 3
Commercial name                : Dolby Digital
Codec ID                       : 129
Duration                       : 1 h 53 min
Bit rate mode                  : Constant
Bit rate                       : 640 kb/s
Channel(s)                     : 6 channels
Channel layout                 : L R C LFE Ls Rs
Sampling rate                  : 48.0 kHz
Frame rate                     : 31.250 FPS (1536 SPF)
Bit depth                      : 16 bits
Compression mode               : Lossy
Stream size                    : 521 MiB (1%)
Service kind                   : Complete Main

Audio #6
ID                             : 4357 (0x1105)
Menu ID                        : 1 (0x1)
Format                         : AC-3
Format/Info                    : Audio Coding 3
Commercial name                : Dolby Digital
Codec ID                       : 129
Duration                       : 1 h 53 min
Bit rate mode                  : Constant
Bit rate                       : 640 kb/s
Channel(s)                     : 6 channels
Channel layout                 : L R C LFE Ls Rs
Sampling rate                  : 48.0 kHz
Frame rate                     : 31.250 FPS (1536 SPF)
Bit depth                      : 16 bits
Compression mode               : Lossy
Stream size                    : 521 MiB (1%)
Service kind                   : Complete Main

Audio #7
ID                             : 4358 (0x1106)
Menu ID                        : 1 (0x1)
Format                         : AC-3
Format/Info                    : Audio Coding 3
Commercial name                : Dolby Digital
Codec ID                       : 129
Duration                       : 1 h 53 min
Bit rate mode                  : Constant
Bit rate                       : 640 kb/s
Channel(s)                     : 6 channels
Channel layout                 : L R C LFE Ls Rs
Sampling rate                  : 48.0 kHz
Frame rate                     : 31.250 FPS (1536 SPF)
Bit depth                      : 16 bits
Compression mode               : Lossy
Stream size                    : 521 MiB (1%)
Service kind                   : Complete Main

Audio #8
ID                             : 4359 (0x1107)
Menu ID                        : 1 (0x1)
Format                         : AC-3
Format/Info                    : Audio Coding 3
Commercial name                : Dolby Digital
Codec ID                       : 129
Duration                       : 1 h 53 min
Bit rate mode                  : Constant
Bit rate                       : 640 kb/s
Channel(s)                     : 6 channels
Channel layout                 : L R C LFE Ls Rs
Sampling rate                  : 48.0 kHz
Frame rate                     : 31.250 FPS (1536 SPF)
Bit depth                      : 16 bits
Compression mode               : Lossy
Stream size                    : 521 MiB (1%)
Service kind                   : Complete Main

Audio #9
ID                             : 4360 (0x1108)
Menu ID                        : 1 (0x1)
Format                         : AC-3
Format/Info                    : Audio Coding 3
Commercial name                : Dolby Digital
Codec ID                       : 129
Duration                       : 1 h 53 min
Bit rate mode                  : Constant
Bit rate                       : 640 kb/s
Channel(s)                     : 6 channels
Channel layout                 : L R C LFE Ls Rs
Sampling rate                  : 48.0 kHz
Frame rate                     : 31.250 FPS (1536 SPF)
Bit depth                      : 16 bits
Compression mode               : Lossy
Stream size                    : 521 MiB (1%)
Service kind                   : Complete Main

Audio #10
ID                             : 4361 (0x1109)
Menu ID                        : 1 (0x1)
Format                         : AC-3
Format/Info                    : Audio Coding 3
Commercial name                : Dolby Digital
Codec ID                       : 129
Duration                       : 1 h 53 min
Bit rate mode                  : Constant
Bit rate                       : 640 kb/s
Channel(s)                     : 6 channels
Channel layout                 : L R C LFE Ls Rs
Sampling rate                  : 48.0 kHz
Frame rate                     : 31.250 FPS (1536 SPF)
Bit depth                      : 16 bits
Compression mode               : Lossy
Stream size                    : 521 MiB (1%)
Service kind                   : Complete Main

Audio #11
ID                             : 4362 (0x110A)
Menu ID                        : 1 (0x1)
Format                         : AC-3
Format/Info                    : Audio Coding 3
Commercial name                : Dolby Digital
Codec ID                       : 129
Duration                       : 1 h 53 min
Bit rate mode                  : Constant
Bit rate                       : 640 kb/s
Channel(s)                     : 6 channels
Channel layout                 : L R C LFE Ls Rs
Sampling rate                  : 48.0 kHz
Frame rate                     : 31.250 FPS (1536 SPF)
Bit depth                      : 16 bits
Compression mode               : Lossy
Stream size                    : 521 MiB (1%)
Service kind                   : Complete Main

Audio #12
ID                             : 4363 (0x110B)
Menu ID                        : 1 (0x1)
Format                         : AC-3
Format/Info                    : Audio Coding 3
Commercial name                : Dolby Digital
Codec ID                       : 129
Duration                       : 1 h 53 min
Bit rate mode                  : Constant
Bit rate                       : 640 kb/s
Channel(s)                     : 6 channels
Channel layout                 : L R C LFE Ls Rs
Sampling rate                  : 48.0 kHz
Frame rate                     : 31.250 FPS (1536 SPF)
Bit depth                      : 16 bits
Compression mode               : Lossy
Stream size                    : 521 MiB (1%)
Service kind                   : Complete Main

Audio #13
ID                             : 4364 (0x110C)
Menu ID                        : 1 (0x1)
Format                         : AC-3
Format/Info                    : Audio Coding 3
Commercial name                : Dolby Digital
Codec ID                       : 129
Duration                       : 1 h 53 min
Bit rate mode                  : Constant
Bit rate                       : 640 kb/s
Channel(s)                     : 6 channels
Channel layout                 : L R C LFE Ls Rs
Sampling rate                  : 48.0 kHz
Frame rate                     : 31.250 FPS (1536 SPF)
Bit depth                      : 16 bits
Compression mode               : Lossy
Stream size                    : 521 MiB (1%)
Service kind                   : Complete Main

Audio #14
ID                             : 4365 (0x110D)
Menu ID                        : 1 (0x1)
Format                         : AC-3
Format/Info                    : Audio Coding 3
Commercial name                : Dolby Digital
Codec ID                       : 129
Duration                       : 1 h 53 min
Bit rate mode                  : Constant
Bit rate                       : 640 kb/s
Channel(s)                     : 6 channels
Channel layout                 : L R C LFE Ls Rs
Sampling rate                  : 48.0 kHz
Frame rate                     : 31.250 FPS (1536 SPF)
Bit depth                      : 16 bits
Compression mode               : Lossy
Stream size                    : 521 MiB (1%)
Service kind                   : Complete Main

Text #1
ID                             : 4768 (0x12A0)
Menu ID                        : 1 (0x1)
Format                         : PGS
Codec ID                       : 144

Text #2
ID                             : 4769 (0x12A1)
Menu ID                        : 1 (0x1)
Format                         : PGS
Codec ID                       : 144

Text #3
ID                             : 4770 (0x12A2)
Menu ID                        : 1 (0x1)
Format                         : PGS
Codec ID                       : 144

Text #4
ID                             : 4771 (0x12A3)
Menu ID                        : 1 (0x1)
Format                         : PGS
Codec ID                       : 144

Text #5
ID                             : 4772 (0x12A4)
Menu ID                        : 1 (0x1)
Format                         : PGS
Codec ID                       : 144

Text #6
ID                             : 4773 (0x12A5)
Menu ID                        : 1 (0x1)
Format                         : PGS
Codec ID                       : 144

Text #7
ID                             : 4774 (0x12A6)
Menu ID                        : 1 (0x1)
Format                         : PGS
Codec ID                       : 144

Text #8
ID                             : 4775 (0x12A7)
Menu ID                        : 1 (0x1)
Format                         : PGS
Codec ID                       : 144

Text #9
ID                             : 4776 (0x12A8)
Menu ID                        : 1 (0x1)
Format                         : PGS
Codec ID                       : 144

Text #10
ID                             : 4777 (0x12A9)
Menu ID                        : 1 (0x1)
Format                         : PGS
Codec ID                       : 144

Text #11
ID                             : 4778 (0x12AA)
Menu ID                        : 1 (0x1)
Format                         : PGS
Codec ID                       : 144

Text #12
ID                             : 4779 (0x12AB)
Menu ID                        : 1 (0x1)
Format                         : PGS
Codec ID                       : 144

Text #13
ID                             : 4780 (0x12AC)
Menu ID                        : 1 (0x1)
Format                         : PGS
Codec ID                       : 144

Text #14
ID                             : 4781 (0x12AD)
Menu ID                        : 1 (0x1)
Format                         : PGS
Codec ID                       : 144

Text #15
ID                             : 4782 (0x12AE)
Menu ID                        : 1 (0x1)
Format                         : PGS
Codec ID                       : 144

Text #16
ID                             : 4783 (0x12AF)
Menu ID                        : 1 (0x1)
Format                         : PGS
Codec ID                       : 144

Text #17
ID                             : 4784 (0x12B0)
Menu ID                        : 1 (0x1)
Format                         : PGS
Codec ID                       : 144

Text #18
ID                             : 4785 (0x12B1)
Menu ID                        : 1 (0x1)
Format                         : PGS
Codec ID                       : 144

Text #19
ID                             : 4786 (0x12B2)
Menu ID                        : 1 (0x1)
Format                         : PGS
Codec ID                       : 144

Text #20
ID                             : 4787 (0x12B3)
Menu ID                        : 1 (0x1)
Format                         : PGS
Codec ID                       : 144

Text #21
ID                             : 4788 (0x12B4)
Menu ID                        : 1 (0x1)
Format                         : PGS
Codec ID                       : 144

Text #22
ID                             : 4789 (0x12B5)
Menu ID                        : 1 (0x1)
Format                         : PGS
Codec ID                       : 144

Text #23
ID                             : 4790 (0x12B6)
Menu ID                        : 1 (0x1)
Format                         : PGS
Codec ID                       : 144

Text #24
ID                             : 4791 (0x12B7)
Menu ID                        : 1 (0x1)
Format                         : PGS
Codec ID                       : 144

Text #25
ID                             : 4792 (0x12B8)
Menu ID                        : 1 (0x1)
Format                         : PGS
Codec ID                       : 144

Text #26
ID                             : 4793 (0x12B9)
Menu ID                        : 1 (0x1)
Format                         : PGS
Codec ID                       : 144

Text #27
ID                             : 4794 (0x12BA)
Menu ID                        : 1 (0x1)
Format                         : PGS
Codec ID                       : 144

Text #28
ID                             : 4795 (0x12BB)
Menu ID                        : 1 (0x1)
Format                         : PGS
Codec ID                       : 144

Text #29
ID                             : 4796 (0x12BC)
Menu ID                        : 1 (0x1)
Format                         : PGS
Codec ID                       : 144

Text #30
ID                             : 4797 (0x12BD)
Menu ID                        : 1 (0x1)
Format                         : PGS
Codec ID                       : 144


  
  • 关闭
  • [url=]上传图片[/url]
  • [url=]普通上传[/url]
  • [url=]网络图片[/url]




TV应用下载
2019-6-30 00:32:08
嗯,我找到连接了magnet:?xt=urn:btih:2F5B16B5654F24C80F928F7C6F29970FA4A6CD4A
TV应用下载
2019-6-30 00:33:04
推荐用115网盘,办一个七天包,也不要开迅雷会员,我在淘宝租了超级会员也没用,最后只有几K
2019-7-1 18:31:04
支持楼主,4K123有你更精彩!
2019-7-1 19:06:57
支持楼主,4K123有你更精彩!
2019-7-1 20:40:56
还没看过这部电影
2019-7-2 00:25:45
支持楼主,4K123有你更精彩!
2019-7-2 09:15:50
资源很给力啊!
2019-7-2 09:16:58
支持楼主,4K123有你更精彩!
2019-7-2 15:42:40
我家4K电视又可以测试了
2019-7-2 21:04:18
马克,真是涨姿势了
2019-7-2 21:25:33
哒哒哒哒哒哒多多多多多
2019-7-3 10:20:13
kkkkkkkkkkkkkkkkk
2019-7-3 12:15:13
我家4K电视又可以测试了
2019-7-3 12:23:11
新手前来学习4K thx so much
2019-7-3 14:30:06
支持楼主,4K123有你更精彩
2019-7-3 14:44:05
谢谢楼主的分享
2019-7-3 15:36:31

谢谢楼主的分享
2019-7-3 15:52:10
很专业 很强大
2019-7-3 21:00:37
支持楼主,4K123有你更精彩!
2019-7-4 22:12:10
支持楼主,4K123有你更精彩!
2019-7-4 23:00:03

支持楼主,4K123有你更精彩!
2019-7-5 18:27:49
支持楼主,4K123有你更精彩!
2019-7-7 13:23:56
年初买的500元两年,省心
2019-7-8 23:37:49
冯国华f'g'h'fghhfhfhfghhfh
2019-7-11 01:28:52
支持楼主,4K123有你更精彩!
2019-7-11 17:50:58
果断大力支持!
7 天前
什么配置可以流畅播放?
7 天前
在哪下载
7 天前
666666666666666666666666
5 天前
支持楼主,4K123有你更精彩!
4 天前
aewfwefwefew
昨天 20:34
78888888888888888888888888888
您需要登录后才可以回帖 登录 | 注册
当贝