找回密码
 注册

QQ登录

只需一步,快速开始

4K风景视频《韵动中国2019》国人自己的纪录片!最壮美的风景

4442
回复
806061
查看
  [复制链接]
来源:4K视频下载 2020-6-17 14:58:15 |阅读模式
到目前为止,《韵动中国》已经制作了三部,影响人数逾亿

风格各有不同,但共同点是,观众对这三部作品都给与了相同的评价:美,看过之后感动……这就是中国延时摄影联盟想要做到的,让全球更多的人看到我们的祖国,我们的家乡,这才是我们大美中国最真实的一面。

1 (16).jpg
1 (17).jpg
1 (10).jpg
1 (8).jpg
1 (9).jpg
1 (11).jpg
1 (14).jpg
1 (3).jpg
1 (4).jpg
1 (7).jpg
1 (6).jpg


韵动中国2019 4K视频信息:

Format                      : AVC
Duration                    : 11mn 20s
Bit rate                       : 14.7 Mbps
Nominal bit rate         : 16.0 Mbps
Width                          : 3 840 pixels
Height                         : 2 160 pixels
Display aspect ratio    : 16:9
Frame rate                     : 29.970 (30000/1001) fps
Chroma subsampling     : 4:2:0
Bit depth                       : 8 bits
Stream size                    : 1.16 GiB (99%)
Format                           : AAC
Duration                       : 11mn 20s
Bit rate                          : 140 Kbps
Channel(s)                     : 2 channels
Channel positions          : Front: L R
Sampling rate                : 48.0 KHz
Frame rate                     : 46.875 fps (1024 spf)
Stream size                    : 11.3 MiB (1%)

国内外70余位顶级延时摄影师历时一年,走遍神州大地,只为寻觅那最绚丽的色彩和最壮美的风景,记录我们最真最美的祖国!

下载地址:
链接:https://pan.baidu.com/s/1Sy70X6mBZc3IWfbT4v1TJQ  提取码:
游客,如果您要查看本帖隐藏内容请回复


相关推荐:
4K CHINA 《盛世中国》 超燃!数百位8KRAW摄影师联合摄制!10分钟看遍祖国大好河山
https://www.4k123.com/thread-98178-1-1.html

2020-6-17 15:19:12
支持楼主,4K123有你更精彩!

点评

支持楼主,4K123有你更精彩!  详情 回复 发表于 2020-7-13 21:53
TV应用下载
2020-6-17 15:25:33
4K太震撼了,希望早日普及
2020-6-17 15:41:56
看起来好像不错的样子
2020-6-17 15:54:52
支持楼主,4K123有你更精彩!
2020-6-17 15:59:43
太美了!4K有你更精彩。
2020-6-17 16:00:10

4K太震撼了,希望早日普及
2020-6-17 16:07:23
马克,真是涨姿势了
2020-6-17 16:30:44

支持楼主,4K123有你更精彩!
2020-6-17 16:32:21
辛苦了拍摄的摄影师
您需要登录后才可以回帖 登录 | 注册
当贝