找回密码
 注册

QQ登录

只需一步,快速开始

[3DMARK.4K.演示片] 3DMark-night-raid_3840x2160.120[MKV/1.27G]

242
回复
54648
查看
[复制链接]
来源:4K视频下载 2020-7-5 17:37:01 |阅读模式
4K,120帧视频,稀有资源,不要错过。
作者提供下载网址 https://joumxyzptlk.de/index.html

[3DMARK.4K.演示片] 3DMark-night-raid_3840x2160.060.mkv_20200705_151424.803小.jpg
[3DMARK.4K.演示片] 3DMark-night-raid_3840x2160.060.mkv_20200705_151625.884小.jpg

General
Unique ID                      : 316228554240135060741926795799024971181 (0xEDE76778DFA941AFA7B0C84205292DAD)
Complete name                  : F:\[3DMARK.4K.演示片] 3DMark-night-raid_3840x2160.120.mkv
Format                         : Matroska
Format version                 : Version 4
File size                      : 1.28 GiB
Duration                       : 4 min 5 s
Overall bit rate               : 44.7 Mb/s
Encoded date                   : UTC 2019-07-11 17:51:11
Writing application            : mkvmerge v35.0.0 ('All The Love In The World') 64-bit
Writing library                : libebml v1.3.9 + libmatroska v1.5.2 / Lavf58.27.103

Video
ID                             : 1
Format                         : AVC
Format/Info                    : Advanced Video Codec
Format profile                 : High@L6
Format settings                : CABAC / 16 Ref Frames
Format settings, CABAC         : Yes
Format settings, Reference fra : 16 frames
Codec ID                       : V_MPEG4/ISO/AVC
Duration                       : 4 min 5 s
Bit rate                       : 43.2 Mb/s
Width                          : 3 840 pixels
Height                         : 2 160 pixels
Display aspect ratio           : 16:9
Frame rate mode                : Variable
Frame rate                     : 120.000 FPS
Color space                    : YUV
Chroma subsampling             : 4:2:0
Bit depth                      : 8 bits
Scan type                      : Progressive
Bits/(Pixel*Frame)             : 0.043
Stream size                    : 1.24 GiB (97%)
Writing library                : x264 core 157 r2970 5493be8
Encoding settings              : cabac=1 / ref=16 / deblock=1:0:0 / analyse=0x3:0x133 / me=umh / subme=10 / psy=1 / psy_rd=1.00:0.00 / mixed_ref=1 / me_range=24 / chroma_me=1 / trellis=2 / 8x8dct=1 / cqm=0 / deadzone=21,11 / fast_pskip=1 / chroma_qp_offset=-2 / threads=24 / lookahead_threads=4 / sliced_threads=0 / nr=0 / decimate=1 / interlaced=0 / bluray_compat=0 / constrained_i**a=0 / bframes=8 / b_pyramid=2 / b_adapt=2 / b_bias=0 / direct=3 / weightb=1 / open_gop=0 / weightp=2 / keyint=250 / keyint_min=25 / scenecut=40 / i**a_refresh=0 / rc_lookahead=60 / rc=crf / mbtree=1 / crf=21.0 / qcomp=0.60 / qpmin=0 / qpmax=69 / qpstep=4 / ip_ratio=1.40 / aq=1:1.00
Default                        : Yes
Forced                         : No

Audio
ID                             : 2
Format                         : PCM
Format settings                : Little / Signed
Codec ID                       : A_PCM/INT/LIT
Duration                       : 3 min 54 s
Bit rate mode                  : Constant
Bit rate                       : 1 536 kb/s
Channel(s)                     : 2 channels
Sampling rate                  : 48.0 kHz
Frame rate                     : 32.001 FPS (1500 SPF)
Bit depth                      : 16 bits
Stream size                    : 42.9 MiB (3%)
Default                        : Yes
Forced                         : No


百度云盘 链接: https://pan.baidu.com/s/1BYTC_zFSZobrpKB-ssBKnQ
游客,如果您要查看本帖隐藏内容请回复



2020-7-8 14:10:59
好久不见302

点评

好久不见!  详情 回复 发表于 2020-7-8 15:58
TV应用下载
2020-7-8 14:24:17

好久不见
2020-7-8 15:58:52

好久不见!
2020-7-8 16:06:21
好久不见
2020-7-8 16:08:00
支持楼主,4K123有你更精彩!
2020-7-8 16:14:25

好东西 感谢分享!!!!
2020-7-8 16:40:57
好东西  我喜欢
2020-7-8 18:01:37
支持楼主,4K123有你更精彩!
2020-7-8 18:47:23
支持楼主,4K123有你更精彩!
您需要登录后才可以回帖 登录 | 注册
当贝