找回密码
 注册

QQ登录

只需一步,快速开始

  • QQ空间
  • 回复
  • 收藏

同样是HDR:HDR10与Dolby vision片源有什么区别

tang4k 2018-5-5 15:16 179人围观 4K电视

相信很多老铁在购买现在的4K电视的时候都会看HDR功能。价格上到几万或者3~4千无论哪个品牌的电视都带有HDR功能。

实质上主要有两种HDR,HDR10与Dolby vision,当然还有一种HLG。我们说说目前网上可能下载到的HDR电影类型来说主要是HDR10与Dolby vision。

哪么怎么查看HDR10与Dolby vision呢?

首先是最常见的HDR10,下面的信息大家用电脑安装完美解码播放器就能查看:

  1. ID                          : 1
  2. Format                      : HEVC
  3. Format/Info                 : High Efficiency Video Coding
  4. Format profile              : Main [email protected]@High
  5. Codec ID                    : hvc1
  6. Codec ID/Info               : High Efficiency Video Coding
  7. Duration                    : 1mn 54s
  8. Source duration             : 1mn 54s
  9. Bit rate                    : 38.5 Mbps
  10. Maximum bit rate            : 53.6 Mbps
  11. Width                       : 3 840 pixels
  12. Height                      : 2 160 pixels
  13. Display aspect ratio        : 16:9
  14. Frame rate mode             : Constant
  15. Frame rate                  : 29.970 (30000/1001) fps
  16. Color space                 : YUV
  17. Chroma subsampling          : 4:2:0 (Type 2)
  18. Bit depth                   : 10 bits
  19. Bits/(Pixel*Frame)          : 0.155
  20. Stream size                 : 524 MiB (96%)
  21. Source stream size          : 546 MiB (100%)
  22. Encoded date                : UTC 2016-06-24 08:20:18
  23. Tagged date                 : UTC 2016-06-24 08:20:24
  24. Color range                 : Limited
  25. Color primaries             : BT.2020
  26. Transfer characteristics    : SMPTE ST 2084
  27. Matrix coefficients         : BT.2020 non-constant
  28. Mastering display color pri : R: x=0.708000 y=0.292000, G: x=0.170000 y=0.797000, B: x=0.131000 y=0.046000, White point: x=0.312700 y=0.329000
  29. Mastering display luminance : min: 0.0035 cd/m2, max: 1125.4000 cd/m2
  30. Maximum Content Light Level : 40000 cd/m2
  31. Maximum Frame-Average Light : 800 cd/m2
复制代码



这一大摞的文字不用多看我们主要看是否有
olor primaries             : BT.2020
ransfer characteristics    : SMPTE ST 2084  
atrix coefficients         : BT.2020 non-constant

这三项就足够能判定是否HDR 10的视频了。



而Dolby vision呢,我给大家看看它的信息。这是我最近刚弄到小样片。完全无法从信息上判定。可以确定的是用电脑是无法播放的、必须有Dolby授权的播放设备才能正常播放。音频要么是DTS、要么是E-AC-3  5.1声道。当然在网上我目前还没下载到有带Dolby vision的电影。

  1. Format                      : HEVC
  2. Format/Info                 : High Efficiency Video Coding
  3. Format profile              : Main [email protected]@Main
  4. Codec ID                    : dvhe
  5. Duration                    : 2 min 12 s
  6. Bit rate                    : 34.5 Mb/s
  7. Width                       : 3 840 pixels
  8. Height                      : 2 160 pixels
  9. Display aspect ratio        : 16:9
  10. Frame rate mode             : Constant
  11. Frame rate                  : 23.976 (24000/1001) FPS
  12. Color space                 : YUV
  13. Chroma subsampling          : 4:2:0
  14. Bit depth                   : 10 bits
  15. Bits/(Pixel*Frame)          : 0.174
  16. Stream size                 : 547 MiB (98%)
  17. Encoded date                : UTC 2018-02-22 05:28:16
  18. Tagged date                 : UTC 2018-02-22 05:28:16
  19. Audio
  20. ID                          : 2
  21. Format                      : E-AC-3
  22. Format/Info                 : Enhanced Audio Coding 3
  23. Format settings, Endianness : Big
  24. Codec ID                    : ec-3
  25. Duration                    : 2 min 11 s
  26. Bit rate mode               : Constant
  27. Bit rate                    : 640 kb/s
  28. Channel(s)                  : 6 channels
  29. Channel positions           : Front: L C R, Side: L R, LFE
  30. Sampling rate               : 48.0 kHz
  31. Frame rate                  : 187.500 FPS (256 spf)
  32. Bit depth                   : 16 bits
  33. Compression mode            : Lossy
  34. Stream size                 : 10.0 MiB (2%)
  35. Encoded date                : UTC 2018-02-22 05:28:16
  36. Tagged date                 : UTC 2018-02-22 05:28:16
复制代码


1.jpg
2.jpg
3.jpg


小样片下载地址:


原作者: 木木鸟
我有话说......

查看全部评论>>