找回密码
 注册

QQ登录

只需一步,快速开始

楼主: zm199418

8K延时摄影 丛林瀑布

2294
回复
161810
查看
[复制链接]
2017-1-2 13:10:48
果断马克mark
TV应用下载
2017-1-2 13:27:50
ddddddddddddddddddddddd
TV应用下载
2017-1-2 14:19:43
谢谢分享
2017-1-2 14:31:38
小手一抖,资源拿走。不要想念我小伙们
2017-1-2 14:48:01
新手前来学习4K
2017-1-2 14:51:58
又是涨姿势了
2017-1-2 15:02:38
支持楼主,4K123有你更精彩!
2017-1-2 15:11:14
谢谢分享!!!
2017-1-2 15:11:30
谢谢分享·!!!
2017-1-2 17:04:09
果断马克mark
2017-1-2 17:16:47
水电费大幅度所发生的
2017-1-2 17:22:28
8k的,我转换一下成3D的
2017-1-2 17:23:35
ffghhjkluhg
2017-1-2 17:27:15
谢谢楼主分享
2017-1-2 18:12:57
Complete name : How.to.Train.Your.Dragon.2010.4K UHD.mkv  Format : Matroska  Format version : Version 4 / Version 2  File size : 5.13 GiB  Duration : 1h 37mn  Overall bit rate : 7 510 Kbps  Encoded date : UTC 2014-03-02 17:13:42  Writing application : mkvmerge v6.7.0 (Back to the Ground) 32bit built on Jan 8 2014 15:03:17  Writing library : libebml v1.3.0 + libmatroska v1.4.1   Video  ID : 1  Format : HEVC  Format/Info : High Efficiency Video Coding  Codec ID : V_MPEGH/ISO/HEVC  Duration : 1h 37mn  Bit rate : 5 851 Kbps  Width : 3 840 pixels  Height : 1 632 pixels  Display aspect ratio : 2.35:1  Frame rate mode : Constant  Frame rate : 23.976 fps  Bits/(Pixel*Frame) : 0.039  Stream size : 4.00 GiB (78%)  Language : English  Default : Yes  Forced : No   Audio  ID : 2  Format : DTS  Format/Info : Digital Theater Systems  Mode : 16  Format settings, Endianness : Big  Codec ID : A_DTS  Duration : 1h 37mn  Bit rate mode : Constant  Bit rate : 1 510 Kbps  Channel(s) : 6 channels  Channel positions : Front: L C R, Side: L R, LFE  Sampling rate : 48.0 KHz  Bit depth : 24 bits  Compression mode : Lossy  Stream size : 1.03 GiB (20%)  Language : English  Default : No  Forced : No
2017-1-2 22:07:24 来自4K123手机版
非常好好好好
2017-1-2 22:36:58
非常好,太棒了,值得拥有
2017-1-2 23:56:07
谢谢分享!!!!
2017-1-3 00:18:15
延时摄影 丛林瀑布
2017-1-3 00:43:21
支持楼主,4K123有你更精彩!
2017-1-3 01:31:44
又是涨姿势了
2017-1-3 09:17:34 来自4K123手机版
支持支持支持支持支持
2017-1-3 09:25:00
支持楼主,4K123有你更精彩!
2017-1-3 09:28:35
景色不错
2017-1-3 09:34:24
楼主 非常感谢您这段视频 关键我下载不了 请提示怎么下载呀!谢谢。
2017-1-3 09:51:01
啊是的空间很大卡上的空间哈市·
2017-1-3 09:51:23
绝杀空间和大家看哈撒孔家店·
2017-1-3 09:59:15
很好,很强大。
2017-1-3 10:01:48
ddddddddddd
2017-1-3 10:31:09
很美很漂亮,谢谢分享
2017-1-3 15:37:32
楼主赞赞赞
2017-1-3 16:12:40
支持楼主,4K123有你更精彩!
2017-1-3 16:16:58
又是涨姿势了
2017-1-3 16:21:57
dddddddddddddddddd
2017-1-3 17:10:46
太好了,学习一下
2017-1-3 17:23:55
666666666666666666666
2017-1-3 21:51:26
支持楼主,4K123有你更精彩!
2017-1-3 22:34:26
本帖最后由 coolpack 于 2017-1-3 22:55 编辑

弄了半天终于在下载了
2017-1-3 22:44:52
真心支持
2017-1-3 22:50:22
感谢无私分享好资源
2017-1-3 22:59:09
谢谢分享
2017-1-3 23:54:01
不错,大力支持!
2017-1-4 08:58:56
我就喜欢大自然,这么高清的当然不能错过!
2017-1-4 09:01:55
楼主厉害呀,感谢
2017-1-4 09:02:16
• 8K延时摄影 中国香港 China HongKong
2017-1-4 09:02:42
• 8K延时摄影 中国香港 China HongKong
2017-1-4 09:20:32
支持楼主,4K123有你更精彩!
2017-1-4 09:21:24
支持楼主,4K123有你更精彩!
2017-1-4 09:40:36
我家4K电视又可以炫机了
2017-1-4 10:29:35
很漂亮,收下测测我的4K电视
您需要登录后才可以回帖 登录 | 注册
当贝